<?xml version="1.0" standalone="no"?>
<!DOCTYPE svg PUBLIC "-//W3C//DTD SVG 1.1//EN" "http://www.w3.org/Graphics/SVG/1.1/DTD/svg11.dtd" >
<svg xmlns="http://www.w3.org/2000/svg">
<metadata>Generated by IcoMoon</metadata>
<defs>
<font id="byl-iconfont" horiz-adv-x="1024">
<font-face units-per-em="1024" ascent="960" descent="-64" />
<missing-glyph horiz-adv-x="1024" />
<glyph unicode="&#x20;" horiz-adv-x="512" d="" />
<glyph unicode="&#xe900;" glyph-name="home" d="M1024 369.556l-512 397.426-512-397.428v162.038l512 397.426 512-397.428zM896 384v-384h-256v256h-256v-256h-256v384l384 288z" />
<glyph unicode="&#xe901;" glyph-name="phone1" d="M1006.56 701.958c-132.058 138.876-307.704 215.376-494.56 215.376s-362.502-76.5-494.56-215.376c-23.252-24.458-23.252-64.23 0-88.688l98.388-103.458c23.17-24.292 64.092-24.292 87.26 0 32.962 34.646 70.342 63.166 111.014 84.666 20.378 10.52 33.546 32.626 33.38 53.5l14.836 112.124c108.846 34.792 191.648 34.77 299.412 0.020l14.668-109.334c0-23.646 12.544-45.23 33.046-56.5 40.838-21.604 78.26-50.126 111.222-84.75 11.544-12.188 27.046-18.876 43.63-18.876 16.586 0 32.088 6.688 43.63 18.854l98.638 103.75c23.25 24.464 23.25 64.234-0.004 88.692zM789.584 519.542c-18.584 34.832-54.668 56.458-94.126 56.458h-366.916c-39.458 0-75.542-21.626-94.126-56.458l-136.54-256.022c-8.208-15.416-12.542-32.77-12.542-50.188v-149.332c0-47.062 38.292-85.334 85.334-85.334h682.666c47.042 0 85.334 38.27 85.334 85.334v149.334c0 17.416-4.334 34.77-12.542 50.208l-136.542 256zM383.958 106.666c-23.542 0-42.666 19.146-42.666 42.666s19.126 42.666 42.666 42.666c23.542 0 42.666-19.146 42.666-42.666 0.002-23.52-19.124-42.666-42.666-42.666zM383.958 234.666c-23.542 0-42.666 19.146-42.666 42.666s19.126 42.666 42.666 42.666c23.542 0 42.666-19.146 42.666-42.666 0.002-23.52-19.124-42.666-42.666-42.666zM383.958 362.666c-23.542 0-42.666 19.146-42.666 42.666s19.126 42.666 42.666 42.666c23.542 0 42.666-19.146 42.666-42.666 0.002-23.52-19.124-42.666-42.666-42.666zM512 106.666c-23.542 0-42.666 19.146-42.666 42.666s19.126 42.666 42.666 42.666 42.666-19.146 42.666-42.666c0-23.52-19.124-42.666-42.666-42.666zM512 234.666c-23.542 0-42.666 19.146-42.666 42.666s19.126 42.666 42.666 42.666 42.666-19.146 42.666-42.666c0-23.52-19.124-42.666-42.666-42.666zM512 362.666c-23.542 0-42.666 19.146-42.666 42.666s19.126 42.666 42.666 42.666 42.666-19.146 42.666-42.666c0-23.52-19.124-42.666-42.666-42.666zM639.958 106.666c-23.542 0-42.666 19.146-42.666 42.666s19.126 42.666 42.666 42.666c23.542 0 42.666-19.146 42.666-42.666 0.002-23.52-19.124-42.666-42.666-42.666zM639.958 234.666c-23.542 0-42.666 19.146-42.666 42.666s19.126 42.666 42.666 42.666c23.542 0 42.666-19.146 42.666-42.666 0.002-23.52-19.124-42.666-42.666-42.666zM639.958 362.666c-23.542 0-42.666 19.146-42.666 42.666s19.126 42.666 42.666 42.666c23.542 0 42.666-19.146 42.666-42.666 0.002-23.52-19.124-42.666-42.666-42.666z" />
<glyph unicode="&#xe902;" glyph-name="tripadvisor" d="M1024 641.6h-180.48c-191.36 166.4-471.68 166.4-663.040 0h-180.48c0 0 40.96-49.92 57.6-96.64-35.84-43.52-57.6-98.56-57.6-159.36 0-141.44 114.56-256 256-256 83.84 0 158.080 40.96 204.8 103.68l53.76-103.68 49.28 103.040c46.72-62.080 120.32-103.040 204.16-103.040 141.44 0 256 114.56 256 256 0 60.8-21.76 115.84-57.6 159.36 16.64 46.72 57.6 96.64 57.6 96.64zM256 193.6c-105.6 0-192 86.4-192 192s86.4 192 192 192 192-86.4 192-192-86.4-192-192-192zM768 193.6c-105.6 0-192 86.4-192 192s86.4 192 192 192 192-86.4 192-192-86.4-192-192-192zM256 513.6c-70.592 0-128-57.408-128-128s57.408-128 128-128 128 57.408 128 128c0 70.592-57.408 128-128 128zM256 321.6c-35.264 0-64 28.736-64 64s28.736 64 64 64 64-28.736 64-64c0-35.264-28.736-64-64-64zM768 513.6c-70.592 0-128-57.408-128-128s57.408-128 128-128c70.592 0 128 57.408 128 128s-57.408 128-128 128zM768 321.6c-35.328 0-64 28.736-64 64s28.672 64 64 64 64-28.736 64-64c0-35.264-28.672-64-64-64zM288 385.6c0-17.673-14.327-32-32-32s-32 14.327-32 32c0 17.673 14.327 32 32 32s32-14.327 32-32zM800 385.6c0-17.673-14.327-32-32-32s-32 14.327-32 32c0 17.673 14.327 32 32 32s32-14.327 32-32z" />
<glyph unicode="&#xe903;" glyph-name="mail-envelope-closed" d="M829.538 285.538l-25.846-25.846-191.692 164.308-84-72-84 72-191.692-164.308-25.846 25.846 189.538 162.462-189.538 162.462 25.846 25.846 275.692-236.308 275.692 236.308 25.846-25.846-189.538-162.462 189.538-162.462zM192.115 704c-35.41 0-64.115-28.624-64.115-63.81v-384.38c0-35.241 28.472-63.81 64.115-63.81h671.77c35.41 0 64.115 28.624 64.115 63.81v384.38c0 35.241-28.472 63.81-64.115 63.81h-671.77z" />
<glyph unicode="&#xe904;" glyph-name="newspaper" d="M896 704v128h-896v-704c0-35.346 28.654-64 64-64h864c53.022 0 96 42.978 96 96v544h-128zM832 128h-768v640h768v-640zM128 640h640v-64h-640zM512 512h256v-64h-256zM512 384h256v-64h-256zM512 256h192v-64h-192zM128 512h320v-320h-320z" />
<glyph unicode="&#xe905;" glyph-name="color_lens" d="M746 448q26 0 45 18t19 46-19 46-45 18-45-18-19-46 19-46 45-18zM618 618q26 0 45 19t19 45-19 45-45 19-45-19-19-45 19-45 45-19zM406 618q26 0 45 19t19 45-19 45-45 19-45-19-19-45 19-45 45-19zM278 448q26 0 45 18t19 46-19 46-45 18-45-18-19-46 19-46 45-18zM512 832q158 0 271-100t113-242q0-88-63-150t-151-62h-74q-28 0-46-19t-18-45q0-22 16-42t16-44q0-28-18-46t-46-18q-160 0-272 112t-112 272 112 272 272 112z" />
<glyph unicode="&#xe906;" glyph-name="pencil2" d="M384 320l128 64 448 448-64 64-448-448-64-128zM289.3 92.902c-31.632 66.728-65.666 100.762-132.396 132.394l99.096 272.792 128 77.912 384 384h-192l-384-384-192-640 640 192 384 384v192l-384-384-77.912-128z" />
<glyph unicode="&#xe907;" glyph-name="bandcamp" d="M0 137.786h737.239l286.761 620.428h-737.239z" />
<glyph unicode="&#xe908;" glyph-name="tiktok" d="M534.411 959.158c55.893 0.853 111.36 0.427 166.827 0.853 3.413-65.28 26.88-131.84 74.667-177.92 47.787-47.36 115.2-69.12 180.907-76.373v-171.947c-61.44 2.133-123.307 14.933-179.2 41.387-24.32 11.093-46.933 25.173-69.12 39.68-0.427-124.587 0.427-249.173-0.853-373.333-3.413-59.733-23.040-119.040-57.6-168.107-55.893-81.92-152.747-135.253-252.16-136.96-61.013-3.413-122.027 13.227-174.080 43.947-86.187 50.773-146.773 143.787-155.733 243.627-0.853 21.333-1.28 42.667-0.427 63.573 7.68 81.067 47.787 158.72 110.080 211.627 70.827 61.44 169.813 90.88 262.4 73.387 0.853-63.147-1.707-126.293-1.707-189.44-42.24 13.653-91.733 9.813-128.853-15.787-26.88-17.493-47.36-44.373-58.027-74.667-8.96-21.76-6.4-45.653-5.973-68.693 10.24-69.973 77.653-128.853 149.333-122.453 47.787 0.427 93.44 28.16 118.187 68.693 8.107 14.080 17.067 28.587 17.493 45.227 4.267 76.373 2.56 152.32 2.987 228.693 0.427 171.947-0.427 343.467 0.853 514.987z" />
<glyph unicode="&#xe909;" glyph-name="mastodon" d="M989.568 623.829c0 222.123-145.536 287.232-145.536 287.232-73.387 33.707-199.424 47.872-330.283 48.939h-3.243c-130.901-1.067-256.853-15.232-330.24-48.939 0 0-145.536-65.109-145.536-287.232 0-50.859-0.981-111.701 0.64-176.171 5.291-217.259 39.851-431.317 240.683-484.48 92.587-24.491 172.117-29.653 236.16-26.112 116.139 6.4 181.333 41.472 181.333 41.472l-3.84 84.267c0 0-82.987-26.155-176.171-22.997-92.373 3.157-189.824 9.941-204.757 123.349-1.305 9.295-2.050 20.032-2.050 30.944 0 0.296 0.001 0.592 0.002 0.889v-0.046c0 0 90.667-22.187 205.525-27.435 70.229-3.2 136.107 4.139 203.008 12.075 128.299 15.317 240 94.379 254.037 166.613 22.059 113.707 20.267 277.632 20.267 277.632zM817.877 337.579h-106.539v261.077c0 55.040-23.168 82.944-69.461 82.944-51.2 0-76.885-33.109-76.885-98.645v-142.891h-105.941v142.933c0 65.536-25.685 98.645-76.885 98.645-46.293 0-69.461-27.947-69.461-82.944v-261.077h-106.539v268.928c0 54.997 13.995 98.688 42.112 130.987 29.013 32.341 66.944 48.896 114.091 48.896 54.528 0 95.829-20.949 123.136-62.891l26.496-44.501 26.539 44.501c27.307 41.941 68.608 62.891 123.136 62.891 47.104 0 85.077-16.555 114.091-48.896 28.075-32.299 42.069-75.989 42.069-130.987z" />
<glyph unicode="&#xe90a;" glyph-name="mail-envelope-closed1" d="M829.538 285.538l-25.846-25.846-191.692 164.308-84-72-84 72-191.692-164.308-25.846 25.846 189.538 162.462-189.538 162.462 25.846 25.846 275.692-236.308 275.692 236.308 25.846-25.846-189.538-162.462 189.538-162.462zM192.115 704c-35.41 0-64.115-28.624-64.115-63.81v-384.38c0-35.241 28.472-63.81 64.115-63.81h671.77c35.41 0 64.115 28.624 64.115 63.81v384.38c0 35.241-28.472 63.81-64.115 63.81h-671.77z" />
<glyph unicode="&#xe90b;" glyph-name="pen" d="M1018.17 668.11l-286.058 286.058c-9.334 9.334-21.644 7.234-27.356-4.666l-38.354-79.904 267.198-267.198 79.904 38.354c11.9 5.712 14 18.022 4.666 27.356zM615.384 824.616l-263.384-21.95c-17.5-2.166-32.080-5.898-37.090-28.752-0.006-0.024-0.012-0.042-0.018-0.066-71.422-343.070-314.892-677.848-314.892-677.848l57.374-57.374 271.986 271.99c-5.996 12.53-9.36 26.564-9.36 41.384 0 53.020 42.98 96 96 96s96-42.98 96-96-42.98-96-96-96c-14.82 0-28.852 3.364-41.384 9.36l-271.988-271.986 57.372-57.374c0 0 334.778 243.47 677.848 314.892 0.024 0.006 0.042 0.012 0.066 0.018 22.854 5.010 26.586 19.59 28.752 37.090l21.95 263.384-273.232 273.232z" />
<glyph unicode="&#xe90c;" glyph-name="paint-format" d="M1024 384v384h-192v64c0 35.2-28.8 64-64 64h-704c-35.2 0-64-28.8-64-64v-192c0-35.2 28.8-64 64-64h704c35.2 0 64 28.8 64 64v64h128v-256h-576v-128h-32c-17.674 0-32-14.326-32-32v-320c0-17.674 14.326-32 32-32h128c17.674 0 32 14.326 32 32v320c0 17.674-14.326 32-32 32h-32v64h576zM768 768h-704v64h704v-64z" />
<glyph unicode="&#xe90d;" glyph-name="image" d="M959.884 832c0.040-0.034 0.082-0.076 0.116-0.116v-767.77c-0.034-0.040-0.076-0.082-0.116-0.116h-895.77c-0.040 0.034-0.082 0.076-0.114 0.116v767.772c0.034 0.040 0.076 0.082 0.114 0.114h895.77zM960 896h-896c-35.2 0-64-28.8-64-64v-768c0-35.2 28.8-64 64-64h896c35.2 0 64 28.8 64 64v768c0 35.2-28.8 64-64 64v0zM832 672c0-53.020-42.98-96-96-96s-96 42.98-96 96 42.98 96 96 96 96-42.98 96-96zM896 128h-768v128l224 384 256-320h64l224 192z" />
<glyph unicode="&#xe90e;" glyph-name="chevron-left" horiz-adv-x="768" d="M669.143 778.857l-303.429-303.429 303.429-303.429c14.286-14.286 14.286-37.143 0-51.429l-94.857-94.857c-14.286-14.286-37.143-14.286-51.429 0l-424 424c-14.286 14.286-14.286 37.143 0 51.429l424 424c14.286 14.286 37.143 14.286 51.429 0l94.857-94.857c14.286-14.286 14.286-37.143 0-51.429z" />
<glyph unicode="&#xe90f;" glyph-name="camera" d="M304 352c0-114.876 93.124-208 208-208s208 93.124 208 208-93.124 208-208 208-208-93.124-208-208zM960 704h-224c-16 64-32 128-96 128h-256c-64 0-80-64-96-128h-224c-35.2 0-64-28.8-64-64v-576c0-35.2 28.8-64 64-64h896c35.2 0 64 28.8 64 64v576c0 35.2-28.8 64-64 64zM512 68c-156.85 0-284 127.148-284 284 0 156.85 127.15 284 284 284 156.852 0 284-127.15 284-284 0-156.852-127.146-284-284-284zM960 512h-128v64h128v-64z" />
<glyph unicode="&#xe910;" glyph-name="headphones" d="M288 384h-64v-448h64c17.6 0 32 14.4 32 32v384c0 17.6-14.4 32-32 32zM736 384c-17.602 0-32-14.4-32-32v-384c0-17.6 14.398-32 32-32h64v448h-64zM1024 448c0 282.77-229.23 512-512 512s-512-229.23-512-512c0-61.412 10.83-120.29 30.656-174.848-19.478-33.206-30.656-71.87-30.656-113.152 0-112.846 83.448-206.188 192-221.716v443.418c-31.914-4.566-61.664-15.842-87.754-32.378-5.392 26.718-8.246 54.364-8.246 82.676 0 229.75 186.25 416 416 416s416-186.25 416-416c0-28.314-2.83-55.968-8.22-82.696-26.1 16.546-55.854 27.848-87.78 32.418v-443.44c108.548 15.532 192 108.874 192 221.714 0 41.274-11.178 79.934-30.648 113.138 19.828 54.566 30.648 113.452 30.648 174.866z" />
<glyph unicode="&#xe911;" glyph-name="music" d="M960 960h64v-736c0-88.366-100.29-160-224-160s-224 71.634-224 160c0 88.368 100.29 160 224 160 62.684 0 119.342-18.4 160-48.040v368.040l-512-113.778v-494.222c0-88.366-100.288-160-224-160s-224 71.634-224 160c0 88.368 100.288 160 224 160 62.684 0 119.342-18.4 160-48.040v624.040l576 128z" />
<glyph unicode="&#xe912;" glyph-name="play" d="M981.188 799.892c-143.632 20.65-302.332 32.108-469.186 32.108-166.86 0-325.556-11.458-469.194-32.108-27.53-107.726-42.808-226.75-42.808-351.892 0-125.14 15.278-244.166 42.808-351.89 143.638-20.652 302.336-32.11 469.194-32.11 166.854 0 325.552 11.458 469.186 32.11 27.532 107.724 42.812 226.75 42.812 351.89 0 125.142-15.28 244.166-42.812 351.892zM384.002 256v384l320-192-320-192z" />
<glyph unicode="&#xe913;" glyph-name="film" d="M0 832v-768h1024v768h-1024zM192 128h-128v128h128v-128zM192 384h-128v128h128v-128zM192 640h-128v128h128v-128zM768 128h-512v640h512v-640zM960 128h-128v128h128v-128zM960 384h-128v128h128v-128zM960 640h-128v128h128v-128zM384 640v-384l256 192z" />
<glyph unicode="&#xe914;" glyph-name="arrow_back_ios" d="M498 772.667l-346-346 346-346-76-76-422 422 422 422z" />
<glyph unicode="&#xe915;" glyph-name="arrow_forward_ios" d="M250 762.667l92 90 426-426-426-426-92 90 338 336z" />
<glyph unicode="&#xe916;" glyph-name="chevron-right" horiz-adv-x="695" d="M632.571 449.714l-424-424c-14.286-14.286-37.143-14.286-51.429 0l-94.857 94.857c-14.286 14.286-14.286 37.143 0 51.429l303.429 303.429-303.429 303.429c-14.286 14.286-14.286 37.143 0 51.429l94.857 94.857c14.286 14.286 37.143 14.286 51.429 0l424-424c14.286-14.286 14.286-37.143 0-51.429z" />
<glyph unicode="&#xe917;" glyph-name="mail-envelope" d="M192.115 704h671.77c35.643 0 64.115-28.569 64.115-63.81v-384.38c0-35.185-28.705-63.81-64.115-63.81h-671.77c-35.643 0-64.115 28.569-64.115 63.81v384.38c0 35.185 28.705 63.81 64.115 63.81zM192.098 672c-17.727 0-32.098-14.398-32.098-32.219v-383.562c0-17.794 14.045-32.219 32.098-32.219h671.803c17.727 0 32.098 14.398 32.098 32.219v383.562c0 17.794-14.045 32.219-32.098 32.219h-671.803zM736 608h96v-96h-96v96zM768 576v-32h32v32h-32zM224 384v-32h256v32h-256zM224 608v-32h128v32h-128zM224 320v-32h256v32h-256z" />
<glyph unicode="&#xe918;" glyph-name="mail-envelope1" d="M192.115 704h671.77c35.643 0 64.115-28.569 64.115-63.81v-384.38c0-35.185-28.705-63.81-64.115-63.81h-671.77c-35.643 0-64.115 28.569-64.115 63.81v384.38c0 35.185 28.705 63.81 64.115 63.81zM224 608v-32h128v32h-128zM736 608v-96h96v96h-96zM768 576v-32h32v32h-32zM224 384v-32h256v32h-256zM224 320v-32h256v32h-256z" />
<glyph unicode="&#xe919;" glyph-name="mail-envelope-closed2" d="M170.080 663.235l357.92-311.235 357.981 311.287c6.206-5.878 10.019-14.235 10.019-23.507v-383.562c0-17.821-14.371-32.219-32.098-32.219h-671.803c-18.053 0-32.098 14.425-32.098 32.219v383.562c0 9.253 3.874 17.582 10.080 23.454zM192.115 704c-35.41 0-64.115-28.624-64.115-63.81v-384.38c0-35.241 28.472-63.81 64.115-63.81h671.77c35.41 0 64.115 28.624 64.115 63.81v384.38c0 35.241-28.472 63.81-64.115 63.81h-671.77zM528 393.6l-320 278.4h640l-320-278.4z" />
<glyph unicode="&#xe91a;" glyph-name="bullhorn" d="M1024 530.744c0 200.926-58.792 363.938-131.482 365.226 0.292 0.006 0.578 0.030 0.872 0.030h-82.942c0 0-194.8-146.336-475.23-203.754-8.56-45.292-14.030-99.274-14.030-161.502s5.466-116.208 14.030-161.5c280.428-57.418 475.23-203.756 475.23-203.756h82.942c-0.292 0-0.578 0.024-0.872 0.032 72.696 1.288 131.482 164.298 131.482 365.224zM864.824 220.748c-9.382 0-19.532 9.742-24.746 15.548-12.63 14.064-24.792 35.96-35.188 63.328-23.256 61.232-36.066 143.31-36.066 231.124 0 87.81 12.81 169.89 36.066 231.122 10.394 27.368 22.562 49.266 35.188 63.328 5.214 5.812 15.364 15.552 24.746 15.552 9.38 0 19.536-9.744 24.744-15.552 12.634-14.064 24.796-35.958 35.188-63.328 23.258-61.23 36.068-143.312 36.068-231.122 0-87.804-12.81-169.888-36.068-231.124-10.39-27.368-22.562-49.264-35.188-63.328-5.208-5.806-15.36-15.548-24.744-15.548zM251.812 530.744c0 51.95 3.81 102.43 11.052 149.094-47.372-6.554-88.942-10.324-140.34-10.324-67.058 0-67.058 0-67.058 0l-55.466-94.686v-88.17l55.46-94.686c0 0 0 0 67.060 0 51.398 0 92.968-3.774 140.34-10.324-7.236 46.664-11.048 97.146-11.048 149.096zM368.15 317.828l-127.998 24.51 81.842-321.544c4.236-16.634 20.744-25.038 36.686-18.654l118.556 47.452c15.944 6.376 22.328 23.964 14.196 39.084l-123.282 229.152zM864.824 411.27c-3.618 0-7.528 3.754-9.538 5.992-4.87 5.42-9.556 13.86-13.562 24.408-8.962 23.6-13.9 55.234-13.9 89.078s4.938 65.478 13.9 89.078c4.006 10.548 8.696 18.988 13.562 24.408 2.010 2.24 5.92 5.994 9.538 5.994 3.616 0 7.53-3.756 9.538-5.994 4.87-5.42 9.556-13.858 13.56-24.408 8.964-23.598 13.902-55.234 13.902-89.078 0-33.842-4.938-65.478-13.902-89.078-4.004-10.548-8.696-18.988-13.56-24.408-2.008-2.238-5.92-5.992-9.538-5.992z" />
<glyph unicode="&#xe91b;" glyph-name="mail-envelope-closed3" d="M226.462 610.462l25.846 25.846 275.692-236.308 275.692 236.308 25.846-25.846-301.538-258.462-301.538 258.462zM192.115 704c-35.41 0-64.115-28.624-64.115-63.81v-384.38c0-35.241 28.472-63.81 64.115-63.81h671.77c35.41 0 64.115 28.624 64.115 63.81v384.38c0 35.241-28.472 63.81-64.115 63.81h-671.77z" />
<glyph unicode="&#xe91c;" glyph-name="mail-envelope-open" d="M528 822.4l-352-310.4 352-304 352 304-352 310.4zM896 483.84l-368-323.84-368 323.84v-419.947c0-17.614 14.045-31.893 32.098-31.893h671.803c17.727 0 32.098 14.395 32.098 31.893v419.947zM928 63.81c0-35.185-28.705-63.81-64.115-63.81h-671.77c-35.643 0-64.115 28.569-64.115 63.81v448.19l400 352 400-352v-448.19z" />
<glyph unicode="&#xe91d;" glyph-name="mail-envelope-open1" d="M226.462 418.462l301.538-258.462 301.538 258.462-26.471 26.471-275.067-230.532-275.067 230.532-26.471-26.471zM928 512v-448.19c0-35.185-28.705-63.81-64.115-63.81h-671.77c-35.643 0-64.115 28.569-64.115 63.81v448.19l400 352 400-352z" />
<glyph unicode="&#xe91e;" glyph-name="mic" d="M480 256c88.366 0 160 71.634 160 160v384c0 88.366-71.634 160-160 160s-160-71.634-160-160v-384c0-88.366 71.636-160 160-160zM704 512v-96c0-123.71-100.29-224-224-224-123.712 0-224 100.29-224 224v96h-64v-96c0-148.238 112.004-270.3 256-286.22v-129.78h-128v-64h320v64h-128v129.78c143.994 15.92 256 137.982 256 286.22v96h-64z" />
<glyph unicode="&#xe91f;" glyph-name="book" d="M896 832v-832h-672c-53.026 0-96 42.98-96 96s42.974 96 96 96h608v768h-640c-70.398 0-128-57.6-128-128v-768c0-70.4 57.602-128 128-128h768v896h-64zM224.056 128v0c-0.018-0.002-0.038 0-0.056 0-17.672 0-32-14.326-32-32s14.328-32 32-32c0.018 0 0.038 0.002 0.056 0.002v-0.002h607.89v64h-607.89z" />
<glyph unicode="&#xe920;" glyph-name="mail-envelope-open2" d="M538.182 256.283l-54.294-0.283h108.112l0.638 0.567-3.18-0.017 210.542 188.25v258.923c0 17.826-14.551 32.276-31.999 32.276h-480.003c-17.672 0-31.999-14.2-31.999-32.066v-262.334l209.632-184.97 72.55-0.347zM418.909 768l109.091 96 109.091-96h130.992c35.408 0 63.918-28.648 63.918-63.988v-107.532l96-84.48v-448.19c0-35.185-28.705-63.81-64.115-63.81h-671.77c-35.643 0-64.115 28.569-64.115 63.81v448.19l96 84.48v107.532c0 35.59 28.617 63.988 63.918 63.988h130.992zM589.691 768l-61.691 54.4-61.691-54.4h123.381zM832 554.327v-84.994l48 42.667-48 42.327zM224 469.333v84.994l-48-42.327 48-42.667zM432 224l-224-192h640l-224 192h-192zM885.924 40.795v0 0c6.203 5.866 10.076 14.145 10.076 23.204v416.001l-256-224.547 245.924-214.659zM170.076 40.795l245.924 214.659-256 224.547v-416.001c0-9.060 3.872-17.338 10.076-23.204v0 0z" />
<glyph unicode="&#xe921;" glyph-name="mail-envelope-open3" d="M709.925 315.936l-69.925-59.936 189.538-162.462-25.846-25.846-191.866 164.457-167.149-0.729-0.677 0.58-191.692-164.308-25.846 25.846 189.538 162.462-69.925 59.936-122.075 103.263v177.281l-96-84.48v-448.19c0-35.241 28.472-63.81 64.115-63.81h671.77c35.41 0 64.115 28.624 64.115 63.81v448.19l-96 84.48v-177.281l-122.075-103.263zM418.909 768l109.091 96 109.091-96h-218.182zM287.999 736c-17.672 0-31.999-14.2-31.999-32.066v-262.334l200.070-170.109h141.432l202.498 170.109v262.334c0 17.71-14.551 32.066-31.999 32.066h-480.003z" />
<glyph unicode="&#xe922;" glyph-name="mail-envelope-closed4" d="M170.080 663.235l247.52-215.235-247.581-215.287c-6.206 5.878-10.019 14.235-10.019 23.507v383.562c0 9.253 3.874 17.582 10.080 23.454zM885.981 663.287c6.206-5.878 10.019-14.235 10.019-23.507v-383.562c0-9.252-3.874-17.582-10.080-23.454l-247.52 215.235 247.581 215.287zM614.459 427.181l233.541-203.181h-640l233.541 203.181 86.459-75.181 86.459 75.181zM192.115 704c-35.41 0-64.115-28.624-64.115-63.81v-384.38c0-35.241 28.472-63.81 64.115-63.81h671.77c35.41 0 64.115 28.624 64.115 63.81v384.38c0 35.241-28.472 63.81-64.115 63.81h-671.77zM528 393.6l-320 278.4h640l-320-278.4z" />
<glyph unicode="&#xe923;" glyph-name="mail-envelope-closed5" d="M829.538 285.538l-25.846-25.846-191.692 164.308-84-72-84 72-191.692-164.308-25.846 25.846 189.538 162.462-189.538 162.462 25.846 25.846 275.692-236.308 275.692 236.308 25.846-25.846-189.538-162.462 189.538-162.462zM192.115 704c-35.41 0-64.115-28.624-64.115-63.81v-384.38c0-35.241 28.472-63.81 64.115-63.81h671.77c35.41 0 64.115 28.624 64.115 63.81v384.38c0 35.241-28.472 63.81-64.115 63.81h-671.77z" />
<glyph unicode="&#xe924;" glyph-name="file-empty" d="M917.806 730.924c-22.212 30.292-53.174 65.7-87.178 99.704s-69.412 64.964-99.704 87.178c-51.574 37.82-76.592 42.194-90.924 42.194h-496c-44.112 0-80-35.888-80-80v-864c0-44.112 35.888-80 80-80h736c44.112 0 80 35.888 80 80v624c0 14.332-4.372 39.35-42.194 90.924zM785.374 785.374c30.7-30.7 54.8-58.398 72.58-81.374h-153.954v153.946c22.984-17.78 50.678-41.878 81.374-72.572zM896 16c0-8.672-7.328-16-16-16h-736c-8.672 0-16 7.328-16 16v864c0 8.672 7.328 16 16 16 0 0 495.956 0.002 496 0v-224c0-17.672 14.326-32 32-32h224v-624z" />
<glyph unicode="&#xe925;" glyph-name="files-empty" d="M917.806 602.924c-22.21 30.292-53.174 65.7-87.178 99.704s-69.412 64.964-99.704 87.178c-51.574 37.82-76.592 42.194-90.924 42.194h-368c-44.114 0-80-35.888-80-80v-736c0-44.112 35.886-80 80-80h608c44.112 0 80 35.888 80 80v496c0 14.332-4.372 39.35-42.194 90.924zM785.374 657.374c30.7-30.7 54.8-58.398 72.58-81.374h-153.954v153.946c22.982-17.78 50.678-41.878 81.374-72.572v0zM896 16c0-8.672-7.328-16-16-16h-608c-8.672 0-16 7.328-16 16v736c0 8.672 7.328 16 16 16 0 0 367.956 0.002 368 0v-224c0-17.672 14.324-32 32-32h224v-496zM602.924 917.804c-51.574 37.822-76.592 42.196-90.924 42.196h-368c-44.112 0-80-35.888-80-80v-736c0-38.632 27.528-70.958 64-78.39v814.39c0 8.672 7.328 16 16 16h486.876c-9.646 7.92-19.028 15.26-27.952 21.804z" />
<glyph unicode="&#xe926;" glyph-name="mail-envelope-open4" d="M528 864l-400-352v-448.19c0-35.241 28.472-63.81 64.115-63.81h671.77c35.41 0 64.115 28.624 64.115 63.81v448.19l-400 352zM432 224h192l224-192h-640l224 192zM528 822.4l352-310.4-288-256h-128l-288 256 352 310.4zM885.924 40.795l-245.924 214.659 256 224.547v-416.001c0-9.060-3.872-17.338-10.076-23.204v0 0zM170.076 40.795v0 0c-6.203 5.866-10.076 14.145-10.076 23.204v416.001l256-224.547-245.924-214.659z" />
<glyph unicode="&#xe927;" glyph-name="file-picture" d="M832 64h-640v128l192 320 263-320 185 128v-256zM832 480c0-53.020-42.98-96-96-96-53.022 0-96 42.98-96 96s42.978 96 96 96c53.020 0 96-42.98 96-96zM917.806 730.924c-22.212 30.292-53.174 65.7-87.178 99.704s-69.412 64.964-99.704 87.178c-51.574 37.82-76.592 42.194-90.924 42.194h-496c-44.112 0-80-35.888-80-80v-864c0-44.112 35.888-80 80-80h736c44.112 0 80 35.888 80 80v624c0 14.332-4.372 39.35-42.194 90.924zM785.374 785.374c30.7-30.7 54.8-58.398 72.58-81.374h-153.954v153.946c22.984-17.78 50.678-41.878 81.374-72.572zM896 16c0-8.672-7.328-16-16-16h-736c-8.672 0-16 7.328-16 16v864c0 8.672 7.328 16 16 16 0 0 495.956 0.002 496 0v-224c0-17.672 14.326-32 32-32h224v-624z" />
<glyph unicode="&#xe928;" glyph-name="file-music" d="M917.806 730.924c-22.21 30.292-53.174 65.7-87.178 99.704s-69.412 64.964-99.704 87.178c-51.574 37.82-76.592 42.194-90.924 42.194h-496c-44.112 0-80-35.888-80-80v-864c0-44.112 35.886-80 80-80h736c44.112 0 80 35.888 80 80v624c0 14.332-4.372 39.35-42.194 90.924v0zM785.374 785.374c30.7-30.7 54.8-58.398 72.58-81.374h-153.954v153.946c22.982-17.78 50.678-41.878 81.374-72.572v0zM896 16c0-8.672-7.328-16-16-16h-736c-8.672 0-16 7.328-16 16v864c0 8.672 7.328 16 16 16 0 0 495.956 0.002 496 0v-224c0-17.672 14.324-32 32-32h224v-624zM756.288 568.748c-7.414 6.080-17.164 8.514-26.562 6.632l-320-64c-14.958-2.994-25.726-16.126-25.726-31.38v-236.876c-18.832 8.174-40.678 12.876-64 12.876-70.692 0-128-42.98-128-96s57.308-96 128-96 128 42.98 128 96v229.766l256 51.202v-133.842c-18.832 8.174-40.678 12.876-64 12.876-70.692 0-128-42.98-128-96s57.308-96 128-96 128 42.98 128 96v319.998c0 9.586-4.298 18.668-11.712 24.748z" />
<glyph unicode="&#xe929;" glyph-name="file-play" d="M384 576l320-224-320-224v448zM917.806 730.924c-22.212 30.292-53.174 65.7-87.178 99.704s-69.412 64.964-99.704 87.178c-51.574 37.82-76.592 42.194-90.924 42.194h-496c-44.112 0-80-35.888-80-80v-864c0-44.112 35.888-80 80-80h736c44.112 0 80 35.888 80 80v624c0 14.332-4.372 39.35-42.194 90.924zM785.374 785.374c30.7-30.7 54.8-58.398 72.58-81.374h-153.954v153.946c22.984-17.78 50.678-41.878 81.374-72.572zM896 16c0-8.672-7.328-16-16-16h-736c-8.672 0-16 7.328-16 16v864c0 8.672 7.328 16 16 16 0 0 495.956 0.002 496 0v-224c0-17.672 14.326-32 32-32h224v-624z" />
<glyph unicode="&#xe92a;" glyph-name="mail-envelope-open5" d="M528 864l-400-352v-448.2c0-35.2 28.5-63.8 64.1-63.8h671.8c35.4 0 64.1 28.6 64.1 63.8v448.2l-400 352zM829.5 93.5v0l-25.8-25.8-191.7 164.3-84-72-84 72-191.7-164.3-25.8 25.8 189.5 162.5-189.5 162.5 25.8 25.8 275.7-236.3 275.7 236.3 25.8-25.8-189.5-162.5 189.5-162.5z" />
<glyph unicode="&#xe92b;" glyph-name="file-zip" d="M917.806 730.924c-22.208 30.292-53.174 65.7-87.178 99.704s-69.412 64.964-99.704 87.178c-51.574 37.82-76.592 42.194-90.924 42.194h-496c-44.112 0-80-35.888-80-80v-864c0-44.112 35.884-80 80-80h736c44.112 0 80 35.888 80 80v624c0 14.332-4.372 39.35-42.194 90.924v0 0zM785.374 785.374c30.7-30.7 54.8-58.398 72.58-81.374h-153.954v153.946c22.98-17.78 50.678-41.878 81.374-72.572v0 0zM896 16c0-8.672-7.328-16-16-16h-736c-8.672 0-16 7.328-16 16v864c0 8.672 7.328 16 16 16 0 0 495.956 0.002 496 0v-224c0-17.672 14.322-32 32-32h224v-624zM256 896h128v-64h-128v64zM384 832h128v-64h-128v64zM256 768h128v-64h-128v64zM384 704h128v-64h-128v64zM256 640h128v-64h-128v64zM384 576h128v-64h-128v64zM256 512h128v-64h-128v64zM384 448h128v-64h-128v64zM256 112c0-26.4 21.6-48 48-48h160c26.4 0 48 21.6 48 48v160c0 26.4-21.6 48-48 48h-80v64h-128v-272zM448 192v-64h-128v64h128z" />
<glyph unicode="&#xe92c;" glyph-name="copy" d="M640 704v256h-448l-192-192v-576h384v-256h640v768h-384zM192 869.49v-101.49h-101.49l101.49 101.49zM64 256v448h192v192h320v-192l-192-192v-256h-320zM576 613.49v-101.49h-101.49l101.49 101.49zM960 0h-512v448h192v192h320v-640z" />
<glyph unicode="&#xe92d;" glyph-name="paste" d="M704 832h-128v64c0 35.2-28.8 64-64 64h-128c-35.204 0-64-28.8-64-64v-64h-128v-128h512v128zM512 832h-128v63.886c0.034 0.038 0.072 0.078 0.114 0.114h127.768c0.042-0.036 0.082-0.076 0.118-0.114v-63.886zM832 640v160c0 17.6-14.4 32-32 32h-64v-64h32v-128h-192l-192-192v-256h-256v576h32v64h-64c-17.602 0-32-14.4-32-32v-640c0-17.6 14.398-32 32-32h288v-192h640v704h-192zM576 549.49v-101.49h-101.49l101.49 101.49zM960 0h-512v384h192v192h320v-576z" />
<glyph unicode="&#xe92e;" glyph-name="mail-checked" d="M832 479.283v192.498c0 9.271-3.813 17.628-10.019 23.507v0l-247.581-215.287 93.321-81.148c31.285 48.805 86.005 81.148 148.279 81.148 5.393 0 10.73-0.243 16-0.717v0 0zM652.838 370.111l-102.38 89.070-86.459-75.181-86.459 75.181-233.541-203.181h502.625c-4.316 15.259-6.625 31.36-6.625 48 0 23.382 4.56 45.699 12.838 66.111v0 0zM659.191 224h-531.076c-35.643 0-64.115 28.569-64.115 63.81v384.38c0 35.185 28.705 63.81 64.115 63.81h671.77c35.643 0 64.115-28.569 64.115-63.81v-198.815c73.872-20.894 128-88.813 128-169.375 0-97.202-78.798-176-176-176-68.395 0-127.678 39.013-156.809 96v0zM106.080 695.235c-6.206-5.871-10.080-14.201-10.080-23.454v-383.562c0-9.271 3.813-17.628 10.019-23.507v0l247.581 215.287-247.52 215.235zM464 425.6l320 278.4h-640l320-278.4zM816 160c79.529 0 144 64.471 144 144s-64.471 144-144 144c-79.529 0-144-64.471-144-144s64.471-144 144-144v0 0zM800 216.235l-75.314 75.314 23.431 23.431 51.882-51.882 99.882 99.882 23.431-23.431-123.314-123.314z" />
<glyph unicode="&#xe92f;" glyph-name="mail-checked1" d="M644.309 421.45l-68.309 58.55 189.538 162.462-25.846 25.846-275.692-236.308-275.692 236.308-25.846-25.846 189.538-162.462-189.538-162.462 25.846-25.846 191.692 164.308 84-72 84 72 78.121-66.961c-11.645-25.961-18.121-54.743-18.121-85.039 0-28.349 5.671-55.373 15.941-80h-495.826c-35.643 0-64.115 28.569-64.115 63.81v384.38c0 35.185 28.705 63.81 64.115 63.81h671.77c35.643 0 64.115-28.569 64.115-63.81v-165.756c-15.409 3.64-31.479 5.566-48 5.566-71.296 0-134.214-35.871-171.691-90.55v0 0zM816 128c97.202 0 176 78.798 176 176s-78.798 176-176 176c-97.202 0-176-78.798-176-176s78.798-176 176-176v0zM800 216.235l-75.314 75.314 23.431 23.431 51.882-51.882 99.882 99.882 23.431-23.431-123.314-123.314z" />
<glyph unicode="&#xe930;" glyph-name="folder-open" d="M832 0l192 512h-832l-192-512zM128 576l-128-576v832h288l128-128h416v-128z" />
<glyph unicode="&#xe931;" glyph-name="mail-cancel" d="M816 281.373l-67.882-67.882-22.627 22.627 67.882 67.882-67.882 67.882 22.627 22.627 67.882-67.882 67.882 67.882 22.627-22.627-67.882-67.882 67.882-67.882-22.627-22.627-67.882 67.882zM832 479.283v192.498c0 9.271-3.813 17.628-10.019 23.507v0l-247.581-215.287 93.321-81.148c31.285 48.805 86.005 81.148 148.279 81.148 5.393 0 10.73-0.243 16-0.717v0 0zM652.838 370.111l-102.38 89.070-86.459-75.181-86.459 75.181-233.541-203.181h502.625c-4.316 15.259-6.625 31.36-6.625 48 0 23.382 4.56 45.699 12.838 66.111v0 0zM659.191 224h-531.076c-35.643 0-64.115 28.569-64.115 63.81v384.38c0 35.185 28.705 63.81 64.115 63.81h671.77c35.643 0 64.115-28.569 64.115-63.81v-198.815c73.872-20.894 128-88.813 128-169.375 0-97.202-78.798-176-176-176-68.395 0-127.678 39.013-156.809 96v0zM106.080 695.235c-6.206-5.871-10.080-14.201-10.080-23.454v-383.562c0-9.271 3.813-17.628 10.019-23.507v0l247.581 215.287-247.52 215.235zM464 425.6l320 278.4h-640l320-278.4zM816 160c79.529 0 144 64.471 144 144s-64.471 144-144 144c-79.529 0-144-64.471-144-144s64.471-144 144-144v0 0z" />
<glyph unicode="&#xe932;" glyph-name="mail-cancel1" d="M816 281.373l-67.882-67.882-22.627 22.627 67.882 67.882-67.882 67.882 22.627 22.627 67.882-67.882 67.882 67.882 22.627-22.627-67.882-67.882 67.882-67.882-22.627-22.627-67.882 67.882zM644.309 421.45l-68.309 58.55 189.538 162.462-25.846 25.846-275.692-236.308-275.692 236.308-25.846-25.846 189.538-162.462-189.538-162.462 25.846-25.846 191.692 164.308 84-72 84 72 78.121-66.961c-11.645-25.961-18.121-54.743-18.121-85.039 0-28.349 5.671-55.373 15.941-80h-495.826c-35.643 0-64.115 28.569-64.115 63.81v384.38c0 35.185 28.705 63.81 64.115 63.81h671.77c35.643 0 64.115-28.569 64.115-63.81v-165.756c-15.409 3.64-31.479 5.566-48 5.566-71.296 0-134.214-35.871-171.691-90.55v0 0zM816 128c97.202 0 176 78.798 176 176s-78.798 176-176 176c-97.202 0-176-78.798-176-176s78.798-176 176-176v0z" />
<glyph unicode="&#xe933;" glyph-name="folder-download" d="M576 704l-128 128h-448v-832h1024v704h-448zM512 96l-224 224h160v256h128v-256h160l-224-224z" />
<glyph unicode="&#xe934;" glyph-name="folder-upload" d="M576 704l-128 128h-448v-832h1024v704h-448zM512 480l224-224h-160v-256h-128v256h-160l224 224z" />
<glyph unicode="&#xe935;" glyph-name="price-tag" d="M976 960h-384c-26.4 0-63.274-15.274-81.942-33.942l-476.116-476.116c-18.668-18.668-18.668-49.214 0-67.882l412.118-412.118c18.668-18.668 49.214-18.668 67.882 0l476.118 476.118c18.666 18.666 33.94 55.54 33.94 81.94v384c0 26.4-21.6 48-48 48zM736 576c-53.020 0-96 42.98-96 96s42.98 96 96 96 96-42.98 96-96-42.98-96-96-96z" />
<glyph unicode="&#xe936;" glyph-name="price-tags" horiz-adv-x="1280" d="M1232 960h-384c-26.4 0-63.274-15.274-81.942-33.942l-476.116-476.116c-18.668-18.668-18.668-49.214 0-67.882l412.118-412.118c18.668-18.668 49.214-18.668 67.882 0l476.118 476.118c18.666 18.666 33.94 55.54 33.94 81.94v384c0 26.4-21.6 48-48 48zM992 576c-53.020 0-96 42.98-96 96s42.98 96 96 96 96-42.98 96-96-42.98-96-96-96zM128 416l544 544h-80c-26.4 0-63.274-15.274-81.942-33.942l-476.116-476.116c-18.668-18.668-18.668-49.214 0-67.882l412.118-412.118c18.668-18.668 49.214-18.668 67.882 0l30.058 30.058-416 416z" />
<glyph unicode="&#xe937;" glyph-name="flag" d="M256 624v208c0 0 95.24 71.562 256 0s256 0 256 0v-352c0 0-95.275-69.996-256 0-105.964 46.148-183.48 31.446-224 16.071v-464.071h-32v592zM496.66 803.199c-131.145 57.668-208.66 9.602-208.66 9.602v-282.805c0 0 100.94 40.532 236.057-20.633 126.559-57.291 212.506-10.891 212.506-10.891v285.527c0 0-96.734-43.756-239.902 19.199v0 0z" />
<glyph unicode="&#xe938;" glyph-name="flag1" d="M256 624.194v-592h32v464.071c40.52 15.375 118.036 30.077 224-16.071 160.725-69.996 256 0 256 0v352c0 0-95.24-71.563-256 0s-256 0-256 0v-208z" />
<glyph unicode="&#xe939;" glyph-name="flag2" d="M256 688v176h512l-176-176 176-176h-480v-480h-32v656zM288 832v-288h400l-144 144 144 144h-400z" />
<glyph unicode="&#xe93a;" glyph-name="cart" d="M384 32c0-53.019-42.981-96-96-96s-96 42.981-96 96c0 53.019 42.981 96 96 96s96-42.981 96-96zM1024 32c0-53.019-42.981-96-96-96s-96 42.981-96 96c0 53.019 42.981 96 96 96s96-42.981 96-96zM1024 448v384h-768c0 35.346-28.654 64-64 64h-192v-64h128l48.074-412.054c-29.294-23.458-48.074-59.5-48.074-99.946 0-70.696 57.308-128 128-128h768v64h-768c-35.346 0-64 28.654-64 64 0 0.218 0.014 0.436 0.016 0.656l831.984 127.344z" />
<glyph unicode="&#xe93b;" glyph-name="flag3" d="M256 688v-656h32v480h480l-176 176 176 176h-512v-176z" />
<glyph unicode="&#xe93c;" glyph-name="flag4" d="M288 656v208l448-192-416-178.286v-461.714h-32v624zM320 816v-288l336 144-336 144z" />
<glyph unicode="&#xe93d;" glyph-name="flag5" d="M288 656v-624h32v461.714l416 178.286-448 192v-208z" />
<glyph unicode="&#xe93e;" glyph-name="flag6" d="M224 688v176h512v-352h-480v-480h-32v656zM256 832v-288h448v288h-448z" />
<glyph unicode="&#xe93f;" glyph-name="credit-card" d="M928 832h-832c-52.8 0-96-43.2-96-96v-576c0-52.8 43.2-96 96-96h832c52.8 0 96 43.2 96 96v576c0 52.8-43.2 96-96 96zM96 768h832c17.346 0 32-14.654 32-32v-96h-896v96c0 17.346 14.654 32 32 32zM928 128h-832c-17.346 0-32 14.654-32 32v288h896v-288c0-17.346-14.654-32-32-32zM128 320h64v-128h-64zM256 320h64v-128h-64zM384 320h64v-128h-64z" />
<glyph unicode="&#xe940;" glyph-name="flag7" d="M224 688v-656h32v480h480v352h-512v-176z" />
<glyph unicode="&#xe941;" glyph-name="bookmark1" d="M415.909 832h192.182c52.977 0 95.909-42.853 95.909-95.715v-672.285l-192 192-192-192v672.285c0 52.778 42.94 95.715 95.909 95.715zM415.988 800c-35.339 0-63.988-28.749-63.988-63.806v-595.393l160 160 160-160v595.393c0 35.239-28.398 63.806-63.988 63.806h-192.025z" />
<glyph unicode="&#xe942;" glyph-name="phone" d="M704 320c-64-64-64-128-128-128s-128 64-192 128-128 128-128 192 64 64 128 128-128 256-192 256-192-192-192-192c0-128 131.5-387.5 256-512s384-256 512-256c0 0 192 128 192 192s-192 256-256 192z" />
<glyph unicode="&#xe943;" glyph-name="bookmark2" d="M415.909 832c-52.969 0-95.909-42.937-95.909-95.715v-672.285l192 192 192-192v672.285c0 52.862-42.932 95.715-95.909 95.715h-192.182z" />
<glyph unicode="&#xe944;" glyph-name="star" d="M512 224l288-192-128 320 288 192h-320l-128 320-128-320h-320l288-192-128-320 288 192zM512 263.902l-217.6-145.502 102.4 246.399-230.4 147.2h239.998l105.602 272 105.602-272h240l-230.402-147.2 102.402-246.399-217.602 145.502z" />
<glyph unicode="&#xe945;" glyph-name="envelop" d="M928 832h-832c-52.8 0-96-43.2-96-96v-640c0-52.8 43.2-96 96-96h832c52.8 0 96 43.2 96 96v640c0 52.8-43.2 96-96 96zM398.74 409.628l-270.74-210.892v501.642l270.74-290.75zM176.38 704h671.24l-335.62-252-335.62 252zM409.288 398.302l102.712-110.302 102.71 110.302 210.554-270.302h-626.528l210.552 270.302zM625.26 409.628l270.74 290.75v-501.642l-270.74 210.892z" />
<glyph unicode="&#xe946;" glyph-name="star1" d="M512 224l-288-192 128 320-288 192h320l128 320 128-320h320l-288-192 128-320z" />
<glyph unicode="&#xe947;" glyph-name="trash-can" d="M736 736h128v-32h-64v-607.781c0-53.467-42.982-96.219-96.004-96.219h-351.992c-53.317 0-96.004 43.079-96.004 96.219v607.781h-64v32h192v63.844c0 35.551 28.616 64.156 63.917 64.156h160.167c35.249 0 63.917-28.724 63.917-64.156v-63.844h64zM288 704v-608.174c0-35.25 28.589-63.826 63.74-63.826h352.519c35.203 0 63.74 28.875 63.74 63.826v608.174h-480zM384 640v-544h32v544h-32zM512 640v-544h32v544h-32zM640 640v-544h32v544h-32zM448.094 832c-17.725 0-32.094-14.165-32.094-31.967v-64.033h224v64.033c0 17.655-14.012 31.967-32.094 31.967h-159.813z" />
<glyph unicode="&#xe948;" glyph-name="trash-can1" d="M736 736h128v-32h-64v-607.781c0-53.467-42.982-96.219-96.004-96.219h-351.992c-53.317 0-96.004 43.079-96.004 96.219v607.781h-64v32h192v63.844c0 35.551 28.616 64.156 63.917 64.156h160.167c35.249 0 63.917-28.724 63.917-64.156v-63.844h64zM384 640v-544h32v544h-32zM512 640v-544h32v544h-32zM640 640v-544h32v544h-32zM448.094 832c-17.725 0-32.094-14.165-32.094-31.967v-64.033h224v64.033c0 17.655-14.012 31.967-32.094 31.967h-159.813z" />
<glyph unicode="&#xe949;" glyph-name="documents" d="M223.918 799.945l0.083 0.055c0 0 0 0-0.001 0s0 0 0.001 0c0.126 35.38 28.694 64 63.917 64 0.209 35.38 28.854 64 64.171 64h351.912l192-224v-576.295c0-34.963-28.617-63.705-63.918-63.705-0.209-35.38-28.777-64-64-64-0.209-35.38-28.777-64-64-64h-480.165c-35.408 0-63.918 28.759-63.918 64.235v735.531c0 35.488 28.617 64.235 63.918 64.235v-0.055zM223.999 768c-17.672 0-31.999-14.568-31.999-31.855v-736.291c0-17.593 14.551-31.855 31.999-31.855h480.003c17.672 0 31.999 14.568 31.999 31.855l-448.082 0.145c-35.408 0-63.918 28.759-63.918 64.235v703.765c0 0 0 0-0.001 0.001v-0.001zM287.999 832c-17.672 0-31.999-14.568-31.999-31.855v-736.291c0-17.593 14.551-31.855 31.999-31.855h480.003c17.672 0 31.999 14.568 31.999 31.855v0.145h-448.082c-35.408 0-63.918 28.759-63.918 64.235v703.765h-0.001zM672 896h-320.142c-17.595 0-31.858-14.568-31.858-31.855v-736.291c0-17.593 14.551-31.855 31.999-31.855h480.003c17.672 0 31.999 14.238 31.999 31.789v544.211h-128.067c-35.309 0-63.933 28.37-63.933 64.189v159.811zM704 880v-143.719c0-17.828 14.421-32.281 31.896-32.281h118.503l-150.398 176z" />
<glyph unicode="&#xe94a;" glyph-name="documents1" d="M287.918 864c0.209 35.38 28.937 64 64.355 64h319.727v-192.061c0-35.565 28.739-63.939 64.189-63.939h159.811v-544.082c0-35.408-28.617-63.918-63.918-63.918-0.209-35.38-28.777-64-64-64-0.209-35.38-28.777-64-64-64h-480.165c-35.408 0-63.918 28.759-63.918 64.235v735.531c0 35.488 28.617 64.235 63.918 64.235 0.082 35.253 28.699 64 64 64v0zM224 64.235l-0.001 703.765c-17.672 0-31.999-14.568-31.999-31.855v-736.291c0-17.593 14.551-31.855 31.999-31.855h480.003c17.672 0 31.999 14.568 31.999 31.855l-448.082 0.145c-35.408 0-63.918 28.759-63.918 64.235zM256 800.145v-736.291c0-17.593 14.551-31.855 31.999-31.855h480.003c17.672 0 31.999 14.568 31.999 31.855l-448.082 0.145c-35.408 0-63.918 28.759-63.918 64.235v703.765c-17.674 0-32-14.568-32-31.855v0zM704 928v-191.906c0-17.725 14.431-32.094 31.705-32.094h160.295l-192 224z" />
<glyph unicode="&#xe94b;" glyph-name="map" d="M0 768l320 128v-768l-320-128zM384 928l320-192v-736l-320 160zM768 736l256 192v-768l-256-192z" />
<glyph unicode="&#xe94c;" glyph-name="map2" d="M672 768l-320 128-352-128v-768l352 128 320-128 352 128v768l-352-128zM384 814.27l256-102.4v-630.138l-256 102.398v630.14zM64 723.172l256 93.090v-631.8l-256-93.088v631.798zM960 172.828l-256-93.092v631.8l256 93.090v-631.798z" />
<glyph unicode="&#xe94d;" glyph-name="documents2" d="M736 560v-432h128.001c17.672 0 31.999 14.238 31.999 31.789v544.211h-128.067c-35.309 0-63.933 28.37-63.933 64.189v159.811h-320.142c-17.595 0-31.858-14.568-31.858-31.855v-96.145h192l192-224v-16zM320 800v95.765c0 35.488 28.693 64.235 64.088 64.235h351.912l192-224v-576.295c0-34.963-28.617-63.705-63.918-63.705h-128.082v-96.295c0-34.963-28.617-63.705-63.918-63.705h-480.165c-35.408 0-63.918 28.759-63.918 64.235v735.531c0 35.488 28.693 64.235 64.088 64.235h127.912zM736 912v-143.719c0-17.828 14.421-32.281 31.896-32.281h118.503l-150.398 176zM512 768h-320.142c-17.595 0-31.858-14.568-31.858-31.855v-736.291c0-17.593 14.551-31.855 31.999-31.855h480.003c17.672 0 31.999 14.238 31.999 31.789v544.211h-128.067c-35.309 0-63.933 28.37-63.933 64.189v159.811zM544 752v-143.719c0-17.828 14.421-32.281 31.896-32.281h118.503l-150.398 176z" />
<glyph unicode="&#xe94e;" glyph-name="clock" d="M658.744 210.744l-210.744 210.746v282.51h128v-229.49l173.256-173.254zM512 960c-282.77 0-512-229.23-512-512s229.23-512 512-512 512 229.23 512 512-229.23 512-512 512zM512 64c-212.078 0-384 171.922-384 384s171.922 384 384 384c212.078 0 384-171.922 384-384s-171.922-384-384-384z" />
<glyph unicode="&#xe94f;" glyph-name="documents3" d="M736 96h128.082c35.301 0 63.918 28.51 63.918 63.918v544.082h-159.811c-35.451 0-64.189 28.375-64.189 63.939v192.061h-319.727c-35.497 0-64.273-28.747-64.273-64.235v-63.765h240l208-243.2v-492.8h-32v448h-159.811c-35.451 0-64.189 28.375-64.189 63.939v192.061h-319.727c-35.497 0-64.273-28.747-64.273-64.235v-735.531c0-35.476 28.51-64.235 63.918-64.235h480.165c35.301 0 63.918 28.51 63.918 63.918v96.082zM736 960v-191.906c0-17.725 14.431-32.094 31.705-32.094h160.295l-192 224zM544 800v-191.906c0-17.725 14.431-32.094 31.705-32.094h160.295l-192 224z" />
<glyph unicode="&#xe950;" glyph-name="inbox-download" d="M480 448l-104 104-24-24 144-144 144 144-24 24-104-104v352h-32v-352zM544 608h172.801l140-224h-216.801v-64.067c0-35.189-28.616-63.933-63.917-63.933h-160.167c-35.249 0-63.917 28.624-63.917 63.933v64.067h-216.801l140 224h172.801v32h-192l-160-256v-288h800v288l-160 256h-192v-32zM672 352h192v-224h-736v224h192v-48c0-44.183 35.689-80 79.874-80h192.252c44.113 0 79.874 35.509 79.874 80v48z" />
<glyph unicode="&#xe951;" glyph-name="inbox-download1" d="M480 448l-104 104-24-24 144-144 144 144-24 24-104-104v352h-32v-352zM640 384h216.801l-140 224h-172.801v32h192l160-256v-288h-800v288l160 256h192v-32h-172.801l-140-224h216.801v-64c0-35.346 28.667-64 63.917-64h160.167c35.3 0 63.917 28.407 63.917 64v64z" />
<glyph unicode="&#xe952;" glyph-name="inbox-upload" d="M480 800l-104-104-24 24 144 144 144-144-24-24-104 104v-352h-32v352zM544 608h172.801l140-224h-216.801v-64.067c0-35.189-28.616-63.933-63.917-63.933h-160.167c-35.249 0-63.917 28.624-63.917 63.933v64.067h-216.801l140 224h172.801v32h-192l-160-256v-288h800v288l-160 256h-192v-32zM672 352h192v-224h-736v224h192v-48c0-44.183 35.689-80 79.874-80h192.252c44.113 0 79.874 35.509 79.874 80v48z" />
<glyph unicode="&#xe953;" glyph-name="calendar" d="M320 576h128v-128h-128zM512 576h128v-128h-128zM704 576h128v-128h-128zM128 192h128v-128h-128zM320 192h128v-128h-128zM512 192h128v-128h-128zM320 384h128v-128h-128zM512 384h128v-128h-128zM704 384h128v-128h-128zM128 384h128v-128h-128zM832 960v-64h-128v64h-448v-64h-128v64h-128v-1024h960v1024h-128zM896 0h-832v704h832v-704z" />
<glyph unicode="&#xe954;" glyph-name="inbox-upload1" d="M480 800l-104-104-24 24 144 144 144-144-24-24-104 104v-352h-32v352zM640 384h216.801l-140 224h-172.801v32h192l160-256v-288h-800v288l160 256h192v-32h-172.801l-140-224h216.801v-64c0-35.346 28.667-64 63.917-64h160.167c35.3 0 63.917 28.407 63.917 64v64z" />
<glyph unicode="&#xe955;" glyph-name="keyboard" horiz-adv-x="1152" d="M1088 832h-1024c-35.2 0-64-28.8-64-64v-640c0-35.2 28.8-64 64-64h1024c35.2 0 64 28.8 64 64v640c0 35.2-28.8 64-64 64zM640 704h128v-128h-128v128zM832 512v-128h-128v128h128zM448 704h128v-128h-128v128zM640 512v-128h-128v128h128zM256 704h128v-128h-128v128zM448 512v-128h-128v128h128zM128 704h64v-128h-64v128zM128 512h128v-128h-128v128zM192 192h-64v128h64v-128zM768 192h-512v128h512v-128zM1024 192h-192v128h192v-128zM1024 384h-128v128h128v-128zM1024 576h-192v128h192v-128z" />
<glyph unicode="&#xe956;" glyph-name="display" d="M0 896v-640h1024v640h-1024zM960 320h-896v512h896v-512zM672 192h-320l-32-128-64-64h512l-64 64z" />
<glyph unicode="&#xe957;" glyph-name="document-zip" d="M416 382.412v33.588h-32v32h32v32h-32v32h32v32h-32v32h32v32h-32v32h32v32h-32v32h32v32h-32v32h32v32h-32v32h-96.142c-17.595 0-31.858-14.568-31.858-31.855v-736.291c0-17.593 14.551-31.855 31.999-31.855h480.003c17.672 0 31.999 14.238 31.999 31.789v544.211h-128.067c-35.309 0-63.933 28.37-63.933 64.189v159.811h-160v-32h32v-32h-32v-32h32v-32h-32v-32h32v-32h-32v-32h32v-32h-32v-32h32v-32h-32v-32h32v-32h-32v-65.583c36.709-7.378 64-39.683 64-78.417 0-44.491-35.817-80-80-80-44.491 0-80 35.817-80 80 0 38.973 27.484 71.054 64 78.412v0 0zM832 640v-576.295c0-34.963-28.617-63.705-63.918-63.705h-480.165c-35.408 0-63.918 28.759-63.918 64.235v735.531c0 35.488 28.693 64.235 64.088 64.235h351.912l192-224zM640 816v-143.719c0-17.828 14.421-32.281 31.896-32.281h118.503l-150.398 176zM432 352c-26.51 0-48-21.306-48-48 0-26.51 21.306-48 48-48 26.51 0 48 21.306 48 48 0 26.51-21.306 48-48 48v0z" />
<glyph unicode="&#xe958;" glyph-name="mobile" d="M736 960h-448c-52.8 0-96-43.2-96-96v-832c0-52.8 43.2-96 96-96h448c52.8 0 96 43.2 96 96v832c0 52.8-43.2 96-96 96zM384 912h256v-32h-256v32zM512 0c-35.346 0-64 28.654-64 64s28.654 64 64 64 64-28.654 64-64-28.654-64-64-64zM768 192h-512v640h512v-640z" />
<glyph unicode="&#xe959;" glyph-name="document-zip1" d="M416 382.412v33.588h-32v32h32v32h-32v32h32v32h-32v32h32v32h-32v32h32v32h-32v32h32v32h-32v32h32v32h-32v32h32v32h-127.727c-35.497 0-64.273-28.747-64.273-64.235v-735.531c0-35.476 28.51-64.235 63.918-64.235h480.165c35.301 0 63.918 28.51 63.918 63.918v544.082h-159.811c-35.451 0-64.189 28.375-64.189 63.939v192.061h-128v-32h-32v-32h32v-32h-32v-32h32v-32h-32v-32h32v-32h-32v-32h32v-32h-32v-32h32v-32h-32v-32h32v-32h-32v-65.583c36.709-7.378 64-39.683 64-78.417 0-44.491-35.817-80-80-80-44.491 0-80 35.817-80 80 0 38.973 27.484 71.054 64 78.412v0 0zM640 864v-191.906c0-17.725 14.431-32.094 31.705-32.094h160.295l-192 224zM432 352c-26.51 0-48-21.306-48-48 0-26.51 21.306-48 48-48 26.51 0 48 21.306 48 48 0 26.51-21.306 48-48 48v0z" />
<glyph unicode="&#xe95a;" glyph-name="lock-rounded" d="M512 258.731v0c-18.643 6.589-32 24.369-32 45.269 0 26.51 21.49 48 48 48s48-21.49 48-48c0-20.9-13.357-38.679-32-45.269v-83.019c0-8.42-7.163-15.712-16-15.712-8.578 0-16 7.035-16 15.712v83.019zM480 239.994v-63.941c0-26.539 21.306-48.054 48-48.054 26.51 0 48 21.478 48 48.054v63.941c19.431 14.595 32 37.833 32 64.006 0 44.183-35.817 80-80 80s-80-35.817-80-80c0-26.173 12.569-49.411 32-64.006v0 0zM288 512v112.025c0 132.561 107.452 239.976 240 239.976 132.279 0 240-107.441 240-239.976v-112.025c53.093-0.152 96-43.21 96-96.303v-159.697c0-141.097-114.602-256-255.971-256h-160.057c-141.214 0-255.971 114.615-255.971 256v159.697c0 53.437 42.955 96.152 96 96.303v0 0zM320 512h32v111.71c0 97.525 78.798 176.29 176 176.29 97.004 0 176-78.928 176-176.29v-111.71h32v112.21c0 114.759-93.359 207.79-208 207.79-114.875 0-208-93.061-208-207.79v-112.21zM384 512h288v111.973c0 79.544-64.633 144.027-144 144.027-79.529 0-144-64.296-144-144.027v-111.973zM287.918 480c-35.301 0-63.918-28.706-63.918-64.187v-159.813c0-123.712 100.399-224 223.807-224h160.387c123.605 0 223.807 100.54 223.807 224v159.813c0 35.45-28.51 64.187-63.918 64.187h-480.165z" />
<glyph unicode="&#xe95b;" glyph-name="tv" d="M981.188 671.892c-88.808 12.768-183.382 22.016-282.076 27.22l164.888 164.888-64 64-224.558-224.556c-21.006 0.368-42.156 0.556-63.442 0.556v0l-256 256-64-64 194.196-194.196c-120.922-4.242-236.338-14.524-343.386-29.912-27.532-107.726-42.81-226.752-42.81-351.892s15.278-244.166 42.804-351.89c143.642-20.652 302.34-32.11 469.196-32.11s325.55 11.458 469.188 32.11c27.534 107.724 42.812 226.75 42.812 351.89s-15.278 244.166-42.812 351.892zM863.892 85.406c-107.73-13.766-226.75-21.406-351.892-21.406s-244.166 7.64-351.892 21.406c-20.648 71.816-32.108 151.166-32.108 234.594 0 83.43 11.458 162.78 32.108 234.596 107.726 13.766 226.75 21.404 351.892 21.404 125.136 0 244.162-7.638 351.886-21.404 20.656-71.816 32.114-151.166 32.114-234.596 0-83.428-11.458-162.778-32.108-234.594z" />
<glyph unicode="&#xe95c;" glyph-name="lock-rounded1" d="M512 258.731v0c-18.643 6.589-32 24.369-32 45.269 0 26.51 21.49 48 48 48s48-21.49 48-48c0-20.9-13.357-38.679-32-45.269v-83.019c0-8.42-7.163-15.712-16-15.712-8.578 0-16 7.035-16 15.712v83.019zM288 512v0 0c-53.045-0.15-96-42.866-96-96.303v-159.697c0-141.385 114.757-256 255.971-256h160.057c141.369 0 255.971 114.903 255.971 256v159.697c0 53.093-42.907 96.151-96 96.303v112.025c0 132.535-107.721 239.976-240 239.976-132.548 0-240-107.415-240-239.976v-112.025zM384 512v111.973c0 79.731 64.471 144.027 144 144.027 79.367 0 144-64.483 144-144.027v-111.973h-288z" />
<glyph unicode="&#xe95d;" glyph-name="lock-rounded-open" d="M672 194.731v0 0c-18.643 6.589-32 24.369-32 45.269 0 26.51 21.49 48 48 48s48-21.49 48-48c0-20.9-13.357-38.679-32-45.269v-83.019c0-8.42-7.163-15.712-16-15.712-8.578 0-16 7.035-16 15.712v83.019zM640 175.994v-63.941c0-26.539 21.306-48.054 48-48.054 26.51 0 48 21.478 48 48.054v63.941c19.431 14.595 32 37.833 32 64.006 0 44.183-35.817 80-80 80s-80-35.817-80-80c0-26.173 12.569-49.411 32-64.006v0 0zM544 448h383.719c53.222 0 96.281-43.116 96.281-96.303v-159.697c0-141.097-114.602-256-255.971-256h-160.057c-141.214 0-255.971 114.615-255.971 256v159.697c0 53.437 42.955 96.152 96 96.303v240.003c0 79.528-64.633 143.997-144 143.997-79.529 0-144-64.54-144-143.997v-127.997c0-26.427-21.49-48.005-48-48.005-26.694 0-48 21.493-48 48.005v128.019c0 132.561 107.452 239.976 240 239.976 132.279 0 240-107.441 240-239.976v-240.024zM512 687.977c0 114.888-93.359 208.023-208 208.023-114.875 0-208-93.439-208-208.023v-128.019c0-8.813 7.422-15.958 16-15.958v0c8.837 0 16 6.952 16 15.976v128.165c0 96.997 78.798 175.859 176 175.859 97.004 0 176-78.735 176-175.859v-240.141h32v239.977zM447.918 416c-35.301 0-63.918-28.706-63.918-64.187v-159.813c0-123.712 100.399-224 223.807-224h160.387c123.605 0 223.807 100.54 223.807 224v159.813c0 35.45-28.51 64.187-63.918 64.187h-480.165z" />
<glyph unicode="&#xe95e;" glyph-name="lock-rounded-open1" d="M672 194.731v-83.019c0-8.678 7.422-15.712 16-15.712 8.837 0 16 7.292 16 15.712v83.019c18.643 6.589 32 24.369 32 45.269 0 26.51-21.49 48-48 48s-48-21.49-48-48c0-20.9 13.357-38.679 32-45.269v0 0zM448 688.003c0 79.528-64.633 143.997-144 143.997-79.529 0-144-64.54-144-143.997v-127.976c0-26.313-21.49-48.027-48-48.027-26.694 0-48 21.502-48 48.027v127.998c0 132.561 107.452 239.976 240 239.976 132.279 0 240-107.441 240-239.976v-240.024h383.719c53.222 0 96.281-43.116 96.281-96.303v-159.697c0-141.097-114.602-256-255.971-256h-160.057c-141.214 0-255.971 114.615-255.971 256v159.697c0 53.437 42.955 96.152 96 96.303v240.003z" />
<glyph unicode="&#xe95f;" glyph-name="lock-rounded-open2" d="M768 656v-95.995c0-26.427-21.49-48.005-48-48.005-26.694 0-48 21.493-48 48.005v128.012c0 79.52-64.633 143.983-144 143.983-79.529 0-144-64.327-144-143.983v-224.034c0-5.402 0.298-10.735 0.879-15.983h383.121c53.093-0.152 96-43.21 96-96.303v-159.697c0-141.097-114.602-256-255.971-256h-160.057c-141.214 0-255.971 114.615-255.971 256v159.697c0 53.437 42.955 96.152 96 96.303v240.025c0 132.561 107.452 239.976 240 239.976 132.279 0 240-107.441 240-239.976v-32.024zM736 688.21c0 114.759-93.359 207.79-208 207.79-114.875 0-208-93.061-208-207.79v-224.421c0-5.312 0.2-10.578 0.593-15.79h31.407v239.71c0 97.525 78.798 176.29 176 176.29 97.004 0 176-78.928 176-176.29v-127.781c0-8.797 7.422-15.929 16-15.929v0c8.837 0 16 6.882 16 15.695v128.515zM512 194.731v0 0c-18.643 6.589-32 24.369-32 45.269 0 26.51 21.49 48 48 48s48-21.49 48-48c0-20.9-13.357-38.679-32-45.269v-83.019c0-8.42-7.163-15.712-16-15.712-8.578 0-16 7.035-16 15.712v83.019zM480 175.994v-63.941c0-26.539 21.306-48.054 48-48.054 26.51 0 48 21.478 48 48.054v63.941c19.431 14.595 32 37.833 32 64.006 0 44.183-35.817 80-80 80s-80-35.817-80-80c0-26.173 12.569-49.411 32-64.006v0 0zM287.918 416c-35.301 0-63.918-28.706-63.918-64.187v-159.813c0-123.712 100.399-224 223.807-224h160.387c123.605 0 223.807 100.54 223.807 224v159.813c0 35.45-28.51 64.187-63.918 64.187h-480.165z" />
<glyph unicode="&#xe960;" glyph-name="lock-rounded-open3" d="M512 194.731v0 0c-18.643 6.589-32 24.369-32 45.269 0 26.51 21.49 48 48 48s48-21.49 48-48c0-20.9-13.357-38.679-32-45.269v-83.019c0-8.42-7.163-15.712-16-15.712-8.578 0-16 7.035-16 15.712v83.019zM768 656v32.024c0 132.535-107.721 239.976-240 239.976-132.548 0-240-107.415-240-239.976v-240.025c-53.045-0.15-96-42.866-96-96.303v-159.697c0-141.385 114.757-256 255.971-256h160.057c141.369 0 255.971 114.903 255.971 256v159.697c0 53.093-42.907 96.151-96 96.303h-383.121c-0.581 5.248-0.879 10.581-0.879 15.983v224.034c0 79.656 64.471 143.983 144 143.983 79.367 0 144-64.463 144-143.983v-115.984c0-33.155 21.306-60.033 48-60.033 26.51 0 48 27.142 48 60.033v83.967z" />
<glyph unicode="&#xe961;" glyph-name="printer-text" d="M832 96v-32.012c0-35.59-28.617-63.988-63.918-63.988h-480.165c-35.408 0-63.918 28.648-63.918 63.988v32.012h-64.183c-52.919 0-95.817 42.972-95.817 95.982v288.037c0 52.962 42.899 95.982 95.817 95.982h64.183v224.012c0 35.59 28.617 63.988 63.918 63.988h480.165c35.408 0 63.918-28.648 63.918-63.988v-224.012h64.183c52.919 0 95.817-42.972 95.817-95.982v-288.037c0-52.962-42.899-95.982-95.817-95.982h-64.183zM224 128v192h608v-192h63.765c35.476 0 64.235 28.593 64.235 64.088v287.823c0 35.395-28.747 64.088-64.235 64.088h-735.531c-35.476 0-64.235-28.593-64.235-64.088v-287.823c0-35.395 28.747-64.088 64.235-64.088h63.765zM287.999 832c-17.672 0-31.999-14.497-31.999-31.905v-224.095h544v224.095c0 17.621-14.551 31.905-31.999 31.905h-480.003zM256 288v-224.095c0-17.621 14.551-31.905 31.999-31.905h480.003c17.672 0 31.999 14.497 31.999 31.905v224.095h-544zM800 416c17.673 0 32 14.327 32 32s-14.327 32-32 32c-17.673 0-32-14.327-32-32s14.327-32 32-32v0zM288 224v-32h480v32h-480zM288 128v-32h480v32h-480z" />
<glyph unicode="&#xe962;" glyph-name="floppy-disk" d="M896 960h-896v-1024h1024v896l-128 128zM512 832h128v-256h-128v256zM896 64h-768v768h64v-320h576v320h74.978l53.022-53.018v-714.982z" />
<glyph unicode="&#xe963;" glyph-name="printer-text1" d="M224 608v192.083c0 35.249 28.617 63.917 63.918 63.917h480.165c35.408 0 63.918-28.616 63.918-63.917v-192.083h-608zM192 96h-32.183c-52.919 0-95.817 42.972-95.817 95.982v288.037c0 52.962 42.899 95.982 95.817 95.982h736.366c52.919 0 95.817-42.972 95.817-95.982v-288.037c0-52.962-42.899-95.982-95.817-95.982h-32.183v256h-672v-256zM224 320h608v-256.012c0-35.59-28.617-63.988-63.918-63.988h-480.165c-35.408 0-63.918 28.648-63.918 63.988v256.012zM800 416c17.673 0 32 14.327 32 32s-14.327 32-32 32c-17.673 0-32-14.327-32-32s14.327-32 32-32v0zM288 224v-32h480v32h-480zM288 128v-32h480v32h-480z" />
<glyph unicode="&#xe964;" glyph-name="database" d="M512 960c-282.77 0-512-71.634-512-160v-128c0-88.366 229.23-160 512-160s512 71.634 512 160v128c0 88.366-229.23 160-512 160zM512 416c-282.77 0-512 71.634-512 160v-192c0-88.366 229.23-160 512-160s512 71.634 512 160v192c0-88.366-229.23-160-512-160zM512 128c-282.77 0-512 71.634-512 160v-192c0-88.366 229.23-160 512-160s512 71.634 512 160v192c0-88.366-229.23-160-512-160z" />
<glyph unicode="&#xe965;" glyph-name="cloud-download" d="M480 88l-104 104-24-24 144-144 144 144-24 24-104-104v360h-32v-360zM448 256h-223.91c-70.556 0-128.090 57.308-128.090 128 0 60.652 42.388 111.624 99.232 124.731v0c-2.123 11.433-3.232 23.221-3.232 35.269 0 106.039 85.961 192 192 192 83.694 0 154.881-53.551 181.166-128.257 24.779 20.167 56.395 32.257 90.834 32.257 75.467 0 137.375-58.053 143.502-131.938v0c55.362-14.081 96.498-64.286 96.498-124.062 0-70.549-57.348-128-128.090-128h-223.91v-32h224.018c88.356 0 159.982 71.814 159.982 160 0 67.085-41.175 124.528-99.748 148.304v0c-16.731 79.784-87.495 139.696-172.252 139.696-27.613 0-53.74-6.359-76.998-17.692-38.484 67.886-111.394 113.692-195.002 113.692-123.712 0-224-100.288-224-224 0-4.421 0.128-8.812 0.381-13.169v0c-56.712-24.642-96.381-81.203-96.381-146.831 0-88.366 71.44-160 159.982-160h224.018v32z" />
<glyph unicode="&#xe966;" glyph-name="cloud-download1" d="M512 224h256.018c88.356 0 159.982 71.814 159.982 160 0 67.085-41.175 124.528-99.748 148.304v0c-16.731 79.784-87.495 139.696-172.252 139.696-27.613 0-53.74-6.359-76.998-17.692-38.484 67.886-111.394 113.692-195.002 113.692-123.712 0-224-100.288-224-224 0-4.421 0.128-8.812 0.381-13.169v0c-56.712-24.642-96.381-81.203-96.381-146.831 0-88.366 71.44-160 159.982-160h256.018v-136l-104 104-24-24 144-144 144 144-24 24-104-104v136zM480 448v-224h32v224h-32z" />
<glyph unicode="&#xe967;" glyph-name="undo2" d="M761.862-64c113.726 206.032 132.888 520.306-313.862 509.824v-253.824l-384 384 384 384v-248.372c534.962 13.942 594.57-472.214 313.862-775.628z" />
<glyph unicode="&#xe968;" glyph-name="redo2" d="M576 711.628v248.372l384-384-384-384v253.824c-446.75 10.482-427.588-303.792-313.86-509.824-280.712 303.414-221.1 789.57 313.86 775.628z" />
<glyph unicode="&#xe969;" glyph-name="forward" d="M262.14 960c-113.728-206.032-132.89-520.304 313.86-509.824v253.824l384-384-384-384v248.372c-534.96-13.942-594.572 472.214-313.86 775.628z" />
<glyph unicode="&#xe96a;" glyph-name="reply" d="M448 184.372v-248.372l-384 384 384 384v-253.824c446.75-10.48 427.588 303.792 313.862 509.824 280.71-303.414 221.1-789.57-313.862-775.628z" />
<glyph unicode="&#xe96b;" glyph-name="bubble" d="M512 896c282.77 0 512-186.25 512-416 0-229.752-229.23-416-512-416-27.156 0-53.81 1.734-79.824 5.044-109.978-109.978-241.25-129.7-368.176-132.596v26.916c68.536 33.578 128 94.74 128 164.636 0 9.754-0.758 19.33-2.164 28.696-115.796 76.264-189.836 192.754-189.836 323.304 0 229.75 229.23 416 512 416z" />
<glyph unicode="&#xe96c;" glyph-name="bubbles" horiz-adv-x="1152" d="M1088 58.834c0-45.5 26.028-84.908 64-104.184v-15.938c-10.626-1.454-21.472-2.224-32.5-2.224-68.008 0-129.348 28.528-172.722 74.264-26.222-6.982-54.002-10.752-82.778-10.752-159.058 0-288 114.616-288 256s128.942 256 288 256c159.058 0 288-114.616 288-256 0-55.348-19.764-106.592-53.356-148.466-6.824-14.824-10.644-31.312-10.644-48.7zM512 960c278.458 0 504.992-180.614 511.836-405.52-49.182 21.92-103.586 33.52-159.836 33.52-95.56 0-185.816-33.446-254.138-94.178-70.846-62.972-109.862-147.434-109.862-237.822 0-44.672 9.544-87.888 27.736-127.788-5.228-0.126-10.468-0.212-15.736-0.212-27.156 0-53.81 1.734-79.824 5.044-109.978-109.978-241.25-129.7-368.176-132.596v26.916c68.536 33.578 128 94.74 128 164.636 0 9.754-0.758 19.33-2.164 28.696-115.796 76.264-189.836 192.754-189.836 323.304 0 229.75 229.23 416 512 416z" />
<glyph unicode="&#xe96d;" glyph-name="bubbles2" horiz-adv-x="1152" d="M480 960v0c265.096 0 480-173.914 480-388.448s-214.904-388.448-480-388.448c-25.458 0-50.446 1.62-74.834 4.71-103.106-102.694-222.172-121.108-341.166-123.814v25.134c64.252 31.354 116 88.466 116 153.734 0 9.106-0.712 18.048-2.030 26.794-108.558 71.214-177.97 179.988-177.97 301.89 0 214.534 214.904 388.448 480 388.448zM996 89.314c0-55.942 36.314-104.898 92-131.772v-21.542c-103.126 2.318-197.786 18.102-287.142 106.126-21.14-2.65-42.794-4.040-64.858-4.040-95.47 0-183.408 25.758-253.614 69.040 144.674 0.506 281.26 46.854 384.834 130.672 52.208 42.252 93.394 91.826 122.414 147.348 30.766 58.866 46.366 121.582 46.366 186.406 0 10.448-0.45 20.836-1.258 31.168 72.57-59.934 117.258-141.622 117.258-231.676 0-104.488-60.158-197.722-154.24-258.764-1.142-7.496-1.76-15.16-1.76-22.966z" />
<glyph unicode="&#xe96e;" glyph-name="cloud-upload" d="M480 448l-104-104-24 24 144 144 144-144-24-24-104 104v-352h-32v352zM448 288h-223.91c-70.556 0-128.090 57.308-128.090 128 0 60.652 42.388 111.624 99.232 124.731v0c-2.123 11.433-3.232 23.221-3.232 35.269 0 106.039 85.961 192 192 192 83.694 0 154.881-53.551 181.166-128.257 24.779 20.167 56.395 32.257 90.834 32.257 75.467 0 137.375-58.053 143.502-131.938v0c55.362-14.081 96.498-64.286 96.498-124.062 0-70.549-57.348-128-128.090-128h-223.91v-32h224.018c88.356 0 159.982 71.814 159.982 160 0 67.085-41.175 124.528-99.748 148.304v0c-16.731 79.784-87.495 139.696-172.252 139.696-27.613 0-53.74-6.359-76.998-17.692-38.484 67.886-111.394 113.692-195.002 113.692-123.712 0-224-100.288-224-224 0-4.421 0.128-8.812 0.381-13.169v0c-56.712-24.642-96.381-81.203-96.381-146.831 0-88.366 71.44-160 159.982-160h224.018v32z" />
<glyph unicode="&#xe96f;" glyph-name="cloud-upload1" d="M512 256h256.018c88.356 0 159.982 71.814 159.982 160 0 67.085-41.175 124.528-99.748 148.304v0c-16.731 79.784-87.495 139.696-172.252 139.696-27.613 0-53.74-6.359-76.998-17.692-38.484 67.886-111.394 113.692-195.002 113.692-123.712 0-224-100.288-224-224 0-4.421 0.128-8.812 0.381-13.169v0c-56.712-24.642-96.381-81.203-96.381-146.831 0-88.366 71.44-160 159.982-160h256.018v192l-104-104-24 24 144 144 144-144-24-24-104 104v-192zM480 256v-160h32v160h-32z" />
<glyph unicode="&#xe970;" glyph-name="pen-angled" d="M718.183 571.189l-361.159-361.586-83.378 83.378 361.347 361.398 83.19-83.19zM740.797 593.83l-83.178 83.178 55.274 55.282c12.523 12.525 32.766 12.428 45.33-0.102l37.754-37.65c12.541-12.506 12.633-32.815 0.153-45.309l-55.334-55.399zM252.919 268.454l79.851-79.851-100.317-19.755 20.465 99.606zM224 288l-32-160 160 32 466.563 466.563c25.094 25.094 25.155 65.719 0.309 90.565l-37.744 37.744c-24.924 24.924-65.199 25.057-90.565-0.309l-466.563-466.563z" />
<glyph unicode="&#xe971;" glyph-name="user" d="M576 253.388v52.78c70.498 39.728 128 138.772 128 237.832 0 159.058 0 288-192 288s-192-128.942-192-288c0-99.060 57.502-198.104 128-237.832v-52.78c-217.102-17.748-384-124.42-384-253.388h896c0 128.968-166.898 235.64-384 253.388z" />
<glyph unicode="&#xe972;" glyph-name="users" horiz-adv-x="1152" d="M768 189.388v52.78c70.498 39.728 128 138.772 128 237.832 0 159.058 0 288-192 288s-192-128.942-192-288c0-99.060 57.502-198.104 128-237.832v-52.78c-217.102-17.748-384-124.42-384-253.388h896c0 128.968-166.898 235.64-384 253.388zM327.196 164.672c55.31 36.15 124.080 63.636 199.788 80.414-15.054 17.784-28.708 37.622-40.492 59.020-30.414 55.234-46.492 116.058-46.492 175.894 0 86.042 0 167.31 30.6 233.762 29.706 64.504 83.128 104.496 159.222 119.488-16.914 76.48-61.94 126.75-181.822 126.75-192 0-192-128.942-192-288 0-99.060 57.502-198.104 128-237.832v-52.78c-217.102-17.748-384-124.42-384-253.388h279.006c14.518 12.91 30.596 25.172 48.19 36.672z" />
<glyph unicode="&#xe973;" glyph-name="user-plus" d="M384 224c0 151.234 95.874 280.486 230.032 330.2 16.28 36.538 25.968 77.164 25.968 117.8 0 159.058 0 288-192 288s-192-128.942-192-288c0-99.060 57.502-198.104 128-237.832v-52.78c-217.102-17.748-384-124.42-384-253.388h397.306c-8.664 30.53-13.306 62.732-13.306 96zM736 512c-159.058 0-288-128.942-288-288s128.942-288 288-288c159.056 0 288 128.942 288 288s-128.942 288-288 288zM896 192h-128v-128h-64v128h-128v64h128v128h64v-128h128v-64z" />
<glyph unicode="&#xe974;" glyph-name="user-minus" d="M384 224c0 151.234 95.874 280.486 230.032 330.2 16.28 36.538 25.968 77.164 25.968 117.8 0 159.058 0 288-192 288s-192-128.942-192-288c0-99.060 57.502-198.104 128-237.832v-52.78c-217.102-17.748-384-124.42-384-253.388h397.306c-8.664 30.53-13.306 62.732-13.306 96zM736 512c-159.058 0-288-128.942-288-288s128.942-288 288-288c159.056 0 288 128.942 288 288s-128.942 288-288 288zM896 192h-320v64h320v-64z" />
<glyph unicode="&#xe975;" glyph-name="user-check" d="M960 352l-288-288-96 96-64-64 160-160 352 352zM448 192h320v115.128c-67.22 39.2-156.308 66.11-256 74.26v52.78c70.498 39.728 128 138.772 128 237.832 0 159.058 0 288-192 288s-192-128.942-192-288c0-99.060 57.502-198.104 128-237.832v-52.78c-217.102-17.748-384-124.42-384-253.388h448v64z" />
<glyph unicode="&#xe976;" glyph-name="pen-angled1" d="M763.3 571.3l55.2 55.2c25.1 25.1 25.2 65.7 0.3 90.6l-37.7 37.7c-24.9 24.9-65.2 25.1-90.6-0.3l-55.2-55.2 128-128zM228.7 292.7l-4.7-4.7-32-160 160 32 4.7 4.7zM251.336 315.329l361.399 361.399 127.985-127.985-361.399-361.399-127.985 127.985z" />
<glyph unicode="&#xe977;" glyph-name="box" d="M96 560v16l160 256h480l160-256v-512h-800v496zM135.199 576h721.602l-140 224h-441.602l-140-224zM128 544v-448h736v448h-736zM415.917 384h160.167c35.249 0 63.917-28.654 63.917-64 0-35.593-28.616-64-63.917-64h-160.167c-35.249 0-63.917 28.654-63.917 64 0 35.593 28.616 64 63.917 64zM416.094 352c-17.725 0-32.094-14.204-32.094-32 0-17.673 14.012-32 32.094-32h159.813c17.725 0 32.094 14.204 32.094 32 0 17.673-14.012 32-32.094 32h-159.813z" />
<glyph unicode="&#xe978;" glyph-name="box1" d="M96 576l160 256h480l160-256v-512h-800v512zM856.801 576l-140 224h-441.602l-140-224h721.602zM415.917 384c-35.3 0-63.917-28.407-63.917-64 0-35.346 28.667-64 63.917-64h160.167c35.3 0 63.917 28.407 63.917 64 0 35.346-28.667 64-63.917 64h-160.167z" />
<glyph unicode="&#xe979;" glyph-name="box-filled" d="M96 576l160 256h480l160-256v-512h-800v512zM856.801 576l-140 224h-441.602l-140-224h721.602zM128 544v-448h736v448h-736zM415.917 384h160.167c35.249 0 63.917-28.654 63.917-64 0-35.593-28.616-64-63.917-64h-160.167c-35.249 0-63.917 28.654-63.917 64 0 35.593 28.616 64 63.917 64zM416.094 352c-17.725 0-32.094-14.204-32.094-32 0-17.673 14.012-32 32.094-32h159.813c17.725 0 32.094 14.204 32.094 32 0 17.673-14.012 32-32.094 32h-159.813zM320 768l-19.199-32h390.398l-19.199 32h-352zM278.398 704l-19.199-32h473.602l-19.199 32h-435.203zM240 640l-19.199-32h550.398l-19.199 32h-512z" />
<glyph unicode="&#xe97a;" glyph-name="box-filled1" d="M96 576l160 256h480l160-256v-512h-800v512zM856.801 576l-140 224h-441.602l-140-224h721.602zM415.917 384c-35.3 0-63.917-28.407-63.917-64 0-35.346 28.667-64 63.917-64h160.167c35.3 0 63.917 28.407 63.917 64 0 35.346-28.667 64-63.917 64h-160.167zM320 768l-19.199-32h390.398l-19.199 32h-352zM278.398 704l-19.199-32h473.602l-19.199 32h-435.203zM240 640l-19.199-32h550.398l-19.199 32h-512z" />
<glyph unicode="&#xe97b;" glyph-name="box2" d="M96 624v16l160 256h480l160-256v-640h-800v624zM135.199 640h721.602l-140 224h-441.602l-140-224zM128 480v-448h736v448h-736zM415.917 320h160.167c35.249 0 63.917-28.654 63.917-64 0-35.593-28.616-64-63.917-64h-160.167c-35.249 0-63.917 28.654-63.917 64 0 35.593 28.616 64 63.917 64zM416.094 288c-17.725 0-32.094-14.204-32.094-32 0-17.673 14.012-32 32.094-32h159.813c17.725 0 32.094 14.204 32.094 32 0 17.673-14.012 32-32.094 32h-159.813zM128 608v-96h736v96h-736z" />
<glyph unicode="&#xe97c;" glyph-name="box3" d="M896 608v-96h-800v96h800zM96 480h800v-480h-800v480zM256 896l-160-256h800l-160 256h-480zM415.917 320c-35.3 0-63.917-28.407-63.917-64 0-35.346 28.667-64 63.917-64h160.167c35.3 0 63.917 28.407 63.917 64 0 35.346-28.667 64-63.917 64h-160.167z" />
<glyph unicode="&#xe97d;" glyph-name="box4" d="M128 544h-64v256h864v-256h-64v-480h-736v480zM160 544v-448h672v448h-672zM96 768v-192h800v192h-800zM415.917 384h160.167c35.249 0 63.917-28.654 63.917-64 0-35.593-28.616-64-63.917-64h-160.167c-35.249 0-63.917 28.654-63.917 64 0 35.593 28.616 64 63.917 64zM416.094 352c-17.725 0-32.094-14.204-32.094-32 0-17.673 14.012-32 32.094-32h159.813c17.725 0 32.094 14.204 32.094 32 0 17.673-14.012 32-32.094 32h-159.813z" />
<glyph unicode="&#xe97e;" glyph-name="box5" d="M864 544v-480h-736v480h736zM928 576v224h-864v-224h864zM415.917 384c-35.3 0-63.917-28.407-63.917-64 0-35.346 28.667-64 63.917-64h160.167c35.3 0 63.917 28.407 63.917 64 0 35.346-28.667 64-63.917 64h-160.167z" />
<glyph unicode="&#xe97f;" glyph-name="box-bookmark" d="M736 512h96v-448h-672v448h384v-288l96 96 96-96v288zM128 512v-480h736v480h64v256h-864v-256h64zM96 736h800v-192h-800v192zM576 512h128v-211.199l-64 64-64-64v211.199z" />
<glyph unicode="&#xe980;" glyph-name="box-bookmark1" d="M864 512v-480h-736v480h416v-288l96 96 96-96v288h128zM928 544v224h-864v-224h864zM576 512v-211.199l64 64 64-64v211.199h-128z" />
<glyph unicode="&#xe981;" glyph-name="tag" d="M448 832l428.189-428.189c25.061-25.061 25.188-65.634 0.241-90.58l-229.661-229.661c-24.909-24.909-65.501-24.838-90.58 0.241l-428.189 428.189v256.012c0 35.59 28.648 63.988 63.988 63.988h256.012zM432 800h-239.73c-17.822 0-32.27-14.624-32.27-32.27v-239.73l419.195-421.477c12.433-12.5 32.592-12.485 44.942-0.051l229.235 230.8c12.388 12.473 12.327 32.604-0.188 45.015l-421.184 417.713zM304 576v0c-44.183 0-80 35.817-80 80s35.817 80 80 80c44.183 0 80-35.817 80-80s-35.817-80-80-80zM304 608c26.51 0 48 21.49 48 48s-21.49 48-48 48c-26.51 0-48-21.49-48-48s21.49-48 48-48v0z" />
<glyph unicode="&#xe982;" glyph-name="tag1" d="M448 832l428.189-428.189c25.061-25.061 25.188-65.634 0.241-90.58l-229.661-229.661c-24.909-24.909-65.501-24.838-90.58 0.241l-428.189 428.189v256.012c0 35.59 28.648 63.988 63.988 63.988h256.012zM304 608c26.51 0 48 21.49 48 48s-21.49 48-48 48c-26.51 0-48-21.49-48-48s21.49-48 48-48v0z" />
<glyph unicode="&#xe983;" glyph-name="tags" d="M200.493 800v0 0c11.047 19.192 31.762 32 55.495 32h256.012l428.189-428.189c25.061-25.061 25.188-65.634 0.241-90.58l-229.661-229.661c-20.273-20.273-50.933-23.999-75.164-11.164l-20.836-20.836c-24.909-24.909-65.501-24.838-90.58 0.241l-428.189 428.189v256.012c0 35.59 28.648 63.988 63.988 63.988h40.505zM192 768h-31.73c-17.822 0-32.27-14.624-32.27-32.27v-239.73l419.195-421.477c12.433-12.5 32.592-12.485 44.942-0.051l18.632 18.759-418.769 418.769v256zM496 800h-239.73c-17.822 0-32.27-14.624-32.27-32.27v-239.73l419.195-421.477c12.433-12.5 32.592-12.485 44.942-0.051l229.235 230.8c12.388 12.473 12.327 32.604-0.188 45.015l-421.184 417.713zM368 576v0c-44.183 0-80 35.817-80 80s35.817 80 80 80c44.183 0 80-35.817 80-80s-35.817-80-80-80zM368 608c26.51 0 48 21.49 48 48s-21.49 48-48 48c-26.51 0-48-21.49-48-48s21.49-48 48-48v0z" />
<glyph unicode="&#xe984;" glyph-name="tags1" d="M159.988 800c-35.339 0-63.988-28.398-63.988-63.988v-256.012l428.189-428.189c22.925-22.925 58.812-24.954 83.834-6.107l-448.022 450.296v303.783c0 0.072 0 0.145 0.001 0.217h-0.013zM512 832l428.189-428.189c25.061-25.061 25.188-65.634 0.241-90.58l-229.661-229.661c-24.909-24.909-65.501-24.838-90.58 0.241l-428.189 428.189v256.012c0 35.59 28.648 63.988 63.988 63.988h256.012zM368 608c26.51 0 48 21.49 48 48s-21.49 48-48 48c-26.51 0-48-21.49-48-48s21.49-48 48-48v0z" />
<glyph unicode="&#xe985;" glyph-name="basketball" d="M511.686 32.628v383.686h-128.314c-4.306-109.458-52.596-207.615-127.686-277.287 67.732-62.845 157.269-102.515 256-106.399v0zM211.218 187.644c-49.322 63.702-79.836 142.7-83.218 228.67h223.344c-4.303-100.588-48.984-190.717-118.247-254.591 0.433-0.471-14.558 16.465-21.879 25.921v0zM822.274 161.723c62.091 67.562 101.24 156.543 105.097 254.591v0h-223.344c4.303-100.588 48.984-190.717 118.247-254.591v0 0zM799.686 139.027c-67.732-62.845-157.269-102.515-256-106.399v0 383.686h128.314c4.306-109.458 52.596-207.615 127.686-277.287v0 0zM822.274 702.905c62.091-67.562 101.24-156.543 105.097-254.591v0h-223.344c4.303 100.588 48.984 190.717 118.247 254.591v0 0zM799.686 725.601c-67.732 62.845-157.269 102.515-256 106.399v-383.686h128.314c4.306 109.458 52.596 207.615 127.686 277.287v0zM233.097 702.905c-62.091-67.562-101.24-156.543-105.097-254.591v0h223.344c-4.303 100.588-48.984 190.717-118.247 254.591v0zM255.686 725.601c67.732 62.845 157.269 102.515 256 106.399v0-383.686h-128.314c-4.306 109.458-52.596 207.615-127.686 277.287v0z" />
<glyph unicode="&#xe986;" glyph-name="baseball" d="M800 138.713c-71.373-66.223-166.958-106.713-272-106.713s-200.627 40.489-272 106.713v0 0c17.326 16.076 33.225 33.668 47.486 52.566l23.542-17.104 18.809 25.889-24.105 17.514c15.885 24.968 29.077 51.816 39.168 80.136l29.764-9.671 9.889 30.434-30.136 9.792c7.536 28.141 12.079 57.506 13.268 87.733h32.314v32h-32.314c-1.189 30.227-5.732 59.592-13.268 87.733l30.136 9.792-9.889 30.434-29.764-9.671c-10.091 28.32-23.283 55.168-39.168 80.136l24.105 17.514-18.809 25.889-23.542-17.104c-14.261 18.898-30.16 36.49-47.486 52.566v0c71.373 66.223 166.958 106.713 272 106.713s200.627-40.489 272-106.713v0c-17.326-16.076-33.225-33.668-47.486-52.566l-23.542 17.104-18.809-25.889 24.105-17.514c-15.885-24.968-29.077-51.816-39.168-80.136l-29.764 9.671-9.889-30.434 30.136-9.792c-7.536-28.141-12.079-57.506-13.268-87.733h-32.314v-32h32.314c1.189-30.227 5.732-59.592 13.268-87.733v0l-30.136-9.792 9.889-30.434 29.764 9.671c10.091-28.32 23.283-55.168 39.168-80.136l-24.105-17.514 18.809-25.889 23.542 17.104c14.261-18.898 30.16-36.49 47.486-52.566v0 0 0zM840.56 182.365c54.72 68.424 87.44 155.209 87.44 249.635 0 104.352-39.959 199.371-105.411 270.591-16.126-14.871-30.919-31.165-44.18-48.683l28.229-20.509-18.809-25.889-27.615 20.063c-13.979-22.238-25.644-46.078-34.659-71.181l31.082-10.099-9.889-30.434-30.679 9.968c-6.573-25.002-10.582-51.044-11.727-77.827h31.658v-32h-31.658c1.146-26.783 5.154-52.825 11.727-77.827l30.679 9.968 9.889-30.434-31.082-10.099c9.015-25.103 20.68-48.942 34.659-71.181l27.615 20.063 18.809-25.889-28.229-20.509c13.261-17.518 28.055-33.812 44.18-48.683-0.433-0.471 11.82 13.263 17.972 20.955v0zM212.641 185.905c-53.035 67.866-84.641 153.289-84.641 246.095 0 104.352 39.959 199.371 105.411 270.591 16.126-14.871 30.919-31.165 44.18-48.683l-28.229-20.509 18.809-25.889 27.615 20.063c13.979-22.238 25.644-46.078 34.659-71.181l-31.082-10.099 9.889-30.434 30.679 9.968c6.573-25.002 10.582-51.044 11.727-77.827h-31.658v-32h31.658c-1.146-26.783-5.154-52.825-11.727-77.827l-30.679 9.968-9.889-30.434 31.082-10.099c-9.015-25.103-20.68-48.942-34.659-71.181l-27.615 20.063-18.809-25.889 28.229-20.509c-13.261-17.518-28.055-33.812-44.18-48.683 0.433-0.471-13.778 15.548-20.771 24.496v0z" />
<glyph unicode="&#xe987;" glyph-name="zoom-in" d="M992.262 88.604l-242.552 206.294c-25.074 22.566-51.89 32.926-73.552 31.926 57.256 67.068 91.842 154.078 91.842 249.176 0 212.078-171.922 384-384 384-212.076 0-384-171.922-384-384s171.922-384 384-384c95.098 0 182.108 34.586 249.176 91.844-1-21.662 9.36-48.478 31.926-73.552l206.294-242.552c35.322-39.246 93.022-42.554 128.22-7.356s31.892 92.898-7.354 128.22zM384 320c-141.384 0-256 114.616-256 256s114.616 256 256 256 256-114.616 256-256-114.614-256-256-256zM448 768h-128v-128h-128v-128h128v-128h128v128h128v128h-128z" />
<glyph unicode="&#xe988;" glyph-name="zoom-out" d="M992.262 88.604l-242.552 206.294c-25.074 22.566-51.89 32.926-73.552 31.926 57.256 67.068 91.842 154.078 91.842 249.176 0 212.078-171.922 384-384 384-212.076 0-384-171.922-384-384s171.922-384 384-384c95.098 0 182.108 34.586 249.176 91.844-1-21.662 9.36-48.478 31.926-73.552l206.294-242.552c35.322-39.246 93.022-42.554 128.22-7.356s31.892 92.898-7.354 128.22zM384 320c-141.384 0-256 114.616-256 256s114.616 256 256 256 256-114.616 256-256-114.614-256-256-256zM192 640h384v-128h-384z" />
<glyph unicode="&#xe989;" glyph-name="enlarge" d="M1024 960h-416l160-160-192-192 96-96 192 192 160-160zM1024-64v416l-160-160-192 192-96-96 192-192-160-160zM0-64h416l-160 160 192 192-96 96-192-192-160 160zM0 960v-416l160 160 192-192 96 96-192 192 160 160z" />
<glyph unicode="&#xe98a;" glyph-name="shrink" d="M576 512h416l-160 160 192 192-96 96-192-192-160 160zM576 384v-416l160 160 192-192 96 96-192 192 160 160zM448 384.004h-416l160-160-192-192 96-96 192 192 160-160zM448 512v416l-160-160-192 192-96-96 192-192-160-160z" />
<glyph unicode="&#xe98b;" glyph-name="enlarge2" d="M1024 960v-416l-160 160-192-192-96 96 192 192-160 160zM448 288l-192-192 160-160h-416v416l160-160 192 192z" />
<glyph unicode="&#xe98c;" glyph-name="shrink2" d="M448 384v-416l-160 160-192-192-96 96 192 192-160 160zM1024 864l-192-192 160-160h-416v416l160-160 192 192z" />
<glyph unicode="&#xe98d;" glyph-name="key" d="M704 960c-176.73 0-320-143.268-320-320 0-20.026 1.858-39.616 5.376-58.624l-389.376-389.376v-192c0-35.346 28.654-64 64-64h64v64h128v128h128v128h128l83.042 83.042c34.010-12.316 70.696-19.042 108.958-19.042 176.73 0 320 143.268 320 320s-143.27 320-320 320zM799.874 639.874c-53.020 0-96 42.98-96 96s42.98 96 96 96 96-42.98 96-96-42.98-96-96-96z" />
<glyph unicode="&#xe98e;" glyph-name="tennis-ball" d="M800 725.287c-71.373 66.223-166.958 106.713-272 106.713s-200.627-40.489-272-106.713v0c78.731-73.051 128-177.415 128-293.287s-49.269-220.236-128-293.287c71.373-66.223 166.958-106.713 272-106.713s200.627 40.489 272 106.713c-78.731 73.051-128 177.415-128 293.287s49.269 220.236 128 293.287v0 0zM822.589 702.591c65.452-71.219 105.411-166.239 105.411-270.591s-39.959-199.371-105.411-270.591c-72.915 67.242-118.589 163.583-118.589 270.591s45.673 203.349 118.589 270.591v0 0zM233.411 702.591c-65.452-71.219-105.411-166.239-105.411-270.591s39.959-199.371 105.411-270.591c72.915 67.242 118.589 163.583 118.589 270.591s-45.673 203.349-118.589 270.591v0z" />
<glyph unicode="&#xe98f;" glyph-name="lock" d="M592 512h-16v192c0 105.87-86.13 192-192 192h-128c-105.87 0-192-86.13-192-192v-192h-16c-26.4 0-48-21.6-48-48v-480c0-26.4 21.6-48 48-48h544c26.4 0 48 21.6 48 48v480c0 26.4-21.6 48-48 48zM192 704c0 35.29 28.71 64 64 64h128c35.29 0 64-28.71 64-64v-192h-256v192z" />
<glyph unicode="&#xe990;" glyph-name="unlocked" d="M768 896c105.87 0 192-86.13 192-192v-192h-128v192c0 35.29-28.71 64-64 64h-128c-35.29 0-64-28.71-64-64v-192h16c26.4 0 48-21.6 48-48v-480c0-26.4-21.6-48-48-48h-544c-26.4 0-48 21.6-48 48v480c0 26.4 21.6 48 48 48h400v192c0 105.87 86.13 192 192 192h128z" />
<glyph unicode="&#xe991;" glyph-name="bowling-ball" d="M528 32v0c-220.914 0-400 179.086-400 400s179.086 400 400 400c220.914 0 400-179.086 400-400s-179.086-400-400-400zM528 64c203.241 0 368 164.759 368 368s-164.759 368-368 368c-203.241 0-368-164.759-368-368s164.759-368 368-368v0zM528 544c26.51 0 48 21.49 48 48s-21.49 48-48 48c-26.51 0-48-21.49-48-48s21.49-48 48-48v0zM624 384c26.51 0 48 21.49 48 48s-21.49 48-48 48c-26.51 0-48-21.49-48-48s21.49-48 48-48v0zM432 384c26.51 0 48 21.49 48 48s-21.49 48-48 48c-26.51 0-48-21.49-48-48s21.49-48 48-48v0z" />
<glyph unicode="&#xe992;" glyph-name="equalizer" d="M448 832v16c0 26.4-21.6 48-48 48h-160c-26.4 0-48-21.6-48-48v-16h-192v-128h192v-16c0-26.4 21.6-48 48-48h160c26.4 0 48 21.6 48 48v16h576v128h-576zM256 704v128h128v-128h-128zM832 528c0 26.4-21.6 48-48 48h-160c-26.4 0-48-21.6-48-48v-16h-576v-128h576v-16c0-26.4 21.6-48 48-48h160c26.4 0 48 21.6 48 48v16h192v128h-192v16zM640 384v128h128v-128h-128zM448 208c0 26.4-21.6 48-48 48h-160c-26.4 0-48-21.6-48-48v-16h-192v-128h192v-16c0-26.4 21.6-48 48-48h160c26.4 0 48 21.6 48 48v16h576v128h-576v16zM256 64v128h128v-128h-128z" />
<glyph unicode="&#xe993;" glyph-name="equalizer2" d="M896 512h16c26.4 0 48 21.6 48 48v160c0 26.4-21.6 48-48 48h-16v192h-128v-192h-16c-26.4 0-48-21.6-48-48v-160c0-26.4 21.6-48 48-48h16v-576h128v576zM768 704h128v-128h-128v128zM592 128c26.4 0 48 21.6 48 48v160c0 26.4-21.6 48-48 48h-16v576h-128v-576h-16c-26.4 0-48-21.6-48-48v-160c0-26.4 21.6-48 48-48h16v-192h128v192h16zM448 320h128v-128h-128v128zM272 512c26.4 0 48 21.6 48 48v160c0 26.4-21.6 48-48 48h-16v192h-128v-192h-16c-26.4 0-48-21.6-48-48v-160c0-26.4 21.6-48 48-48h16v-576h128v576h16zM128 704h128v-128h-128v128z" />
<glyph unicode="&#xe994;" glyph-name="cog" d="M933.79 349.75c-53.726 93.054-21.416 212.304 72.152 266.488l-100.626 174.292c-28.75-16.854-62.176-26.518-97.846-26.518-107.536 0-194.708 87.746-194.708 195.99h-201.258c0.266-33.41-8.074-67.282-25.958-98.252-53.724-93.056-173.156-124.702-266.862-70.758l-100.624-174.292c28.97-16.472 54.050-40.588 71.886-71.478 53.638-92.908 21.512-211.92-71.708-266.224l100.626-174.292c28.65 16.696 61.916 26.254 97.4 26.254 107.196 0 194.144-87.192 194.7-194.958h201.254c-0.086 33.074 8.272 66.57 25.966 97.218 53.636 92.906 172.776 124.594 266.414 71.012l100.626 174.29c-28.78 16.466-53.692 40.498-71.434 71.228zM512 240.668c-114.508 0-207.336 92.824-207.336 207.334 0 114.508 92.826 207.334 207.336 207.334 114.508 0 207.332-92.826 207.332-207.334-0.002-114.51-92.824-207.334-207.332-207.334z" />
<glyph unicode="&#xe995;" glyph-name="bowling-ball1" d="M528 32v0c-220.914 0-400 179.086-400 400s179.086 400 400 400c220.914 0 400-179.086 400-400s-179.086-400-400-400zM528 544c26.51 0 48 21.49 48 48s-21.49 48-48 48c-26.51 0-48-21.49-48-48s21.49-48 48-48v0zM624 384c26.51 0 48 21.49 48 48s-21.49 48-48 48c-26.51 0-48-21.49-48-48s21.49-48 48-48v0zM432 384c26.51 0 48 21.49 48 48s-21.49 48-48 48c-26.51 0-48-21.49-48-48s21.49-48 48-48v0z" />
<glyph unicode="&#xe996;" glyph-name="billiard-ball" d="M576.008 432c19.427-14.596 31.992-37.83 31.992-64 0-44.183-35.817-80-80-80s-80 35.817-80 80c0 26.17 12.565 49.404 31.992 64-19.427 14.596-31.992 37.83-31.992 64 0 44.183 35.817 80 80 80s80-35.817 80-80c0-26.17-12.565-49.404-31.992-64v0 0zM528 32v0c-220.914 0-400 179.086-400 400s179.086 400 400 400c220.914 0 400-179.086 400-400s-179.086-400-400-400zM528 64c203.241 0 368 164.759 368 368s-164.759 368-368 368c-203.241 0-368-164.759-368-368s164.759-368 368-368v0zM528 224c114.875 0 208 93.125 208 208s-93.125 208-208 208c-114.875 0-208-93.125-208-208s93.125-208 208-208v0zM528 320c26.51 0 48 21.49 48 48s-21.49 48-48 48c-26.51 0-48-21.49-48-48s21.49-48 48-48v0zM528 448c26.51 0 48 21.49 48 48s-21.49 48-48 48c-26.51 0-48-21.49-48-48s21.49-48 48-48v0z" />
<glyph unicode="&#xe997;" glyph-name="billiard-ball1" d="M576.008 432c19.427-14.596 31.992-37.83 31.992-64 0-44.183-35.817-80-80-80s-80 35.817-80 80c0 26.17 12.565 49.404 31.992 64-19.427 14.596-31.992 37.83-31.992 64 0 44.183 35.817 80 80 80s80-35.817 80-80c0-26.17-12.565-49.404-31.992-64v0 0zM528 32v0c-220.914 0-400 179.086-400 400s179.086 400 400 400c220.914 0 400-179.086 400-400s-179.086-400-400-400zM528 224c114.875 0 208 93.125 208 208s-93.125 208-208 208c-114.875 0-208-93.125-208-208s93.125-208 208-208v0zM528 320c26.51 0 48 21.49 48 48s-21.49 48-48 48c-26.51 0-48-21.49-48-48s21.49-48 48-48v0zM528 448c26.51 0 48 21.49 48 48s-21.49 48-48 48c-26.51 0-48-21.49-48-48s21.49-48 48-48v0z" />
<glyph unicode="&#xe998;" glyph-name="soccer-ball" d="M282.096 494.362l113.485-48.172 40.052-137.68-78.856-81.658-129.431-7.11c-39.496 55.842-63.826 123.172-66.993 195.993l121.743 78.626zM284.936 527.92l-49.333 127.558c41.686 54.459 98.242 96.933 163.603 121.355l112.794-91.809v-122.047l-106.134-86.389-120.929 51.331zM387.908 213.023l72.404 74.977h131.769l75.234-77.907-34.756-131.027c-33.143-9.804-68.237-15.066-104.559-15.066s-71.416 5.262-104.559 15.066l-35.533 133.957zM695.414 227.061l-75.882 78.579 41.276 141.887 112.002 47.542 122.837-79.333c-3.167-72.821-27.497-140.151-66.993-195.993l-133.24 7.319zM771.606 529.321l-122.417-51.963-105.188 85.619v122.047l112.794 91.809c65.361-24.423 121.917-66.896 163.603-121.355l-48.791-126.156zM528 32c220.914 0 400 179.086 400 400s-179.086 400-400 400c-220.914 0-400-179.086-400-400s179.086-400 400-400v0z" />
<glyph unicode="&#xe999;" glyph-name="soccer-court" d="M64 288v-96.082c0-35.301 28.791-63.918 63.785-63.918h384.215v160.879c-71.999 7.959-128 69-128 143.121s56.001 135.162 128 143.121v160.879h-384.215c-35.228 0-63.785-28.51-63.785-63.918v-96.082h160v-288h-160zM992 288v-96.082c0-35.408-28.558-63.918-63.785-63.918h-384.215v160.879c71.999 7.959 128 69 128 143.121s-56.001 135.162-128 143.121v160.879h384.215c34.994 0 63.785-28.617 63.785-63.918v-96.082h-160v-288h160zM544 321.134c54.277 7.764 96 54.442 96 110.866s-41.723 103.102-96 110.866v-221.732zM512 542.866c-54.277-7.764-96-54.442-96-110.866s41.723-103.102 96-110.866v221.732zM864 544v-224h128v224h-128zM64 544v-224h128v224h-128z" />
<glyph unicode="&#xe99a;" glyph-name="pie-chart" d="M448 384v448c-247.424 0-448-200.576-448-448s200.576-448 448-448 448 200.576 448 448c0 72.034-17.028 140.084-47.236 200.382l-400.764-200.382zM912.764 712.382c-73.552 146.816-225.374 247.618-400.764 247.618v-448l400.764 200.382z" />
<glyph unicode="&#xe99b;" glyph-name="stats-dots" d="M128 64h896v-128h-1024v1024h128zM288 128c-53.020 0-96 42.98-96 96s42.98 96 96 96c2.828 0 5.622-0.148 8.388-0.386l103.192 171.986c-9.84 15.070-15.58 33.062-15.58 52.402 0 53.020 42.98 96 96 96s96-42.98 96-96c0-19.342-5.74-37.332-15.58-52.402l103.192-171.986c2.766 0.238 5.56 0.386 8.388 0.386 2.136 0 4.248-0.094 6.35-0.23l170.356 298.122c-10.536 15.408-16.706 34.036-16.706 54.11 0 53.020 42.98 96 96 96s96-42.98 96-96c0-53.020-42.98-96-96-96-2.14 0-4.248 0.094-6.35 0.232l-170.356-298.124c10.536-15.406 16.706-34.036 16.706-54.11 0-53.020-42.98-96-96-96s-96 42.98-96 96c0 19.34 5.74 37.332 15.578 52.402l-103.19 171.984c-2.766-0.238-5.56-0.386-8.388-0.386s-5.622 0.146-8.388 0.386l-103.192-171.986c9.84-15.068 15.58-33.060 15.58-52.4 0-53.020-42.98-96-96-96z" />
<glyph unicode="&#xe99c;" glyph-name="football" d="M640 416h-32v-64h-32v64h-32v-64h-32v64h-32v-64h-32v64h-32v-64h-32v64h-64v32h64v64h32v-64h32v64h32v-64h32v64h32v-64h32v64h32v-64h32v64h32v-64h64v-32h-64v-64h-32v64zM288 250.348c62.912-33.601 142.382-58.348 240-58.348s177.088 24.747 240 58.348v0 363.304c-62.912 33.601-142.382 58.348-240 58.348s-177.088-24.747-240-58.348v-363.304zM256 269.024c-110.513 70.188-160 162.976-160 162.976s49.487 92.788 160 162.976v-325.952zM800 269.024c110.513 70.188 160 162.976 160 162.976s-49.487 92.788-160 162.976v-325.952z" />
<glyph unicode="&#xe99d;" glyph-name="football1" d="M640 416h-32v-64h-32v64h-32v-64h-32v64h-32v-64h-32v64h-32v-64h-32v64h-64v32h64v64h32v-64h32v64h32v-64h32v64h32v-64h32v64h32v-64h32v64h32v-64h64v-32h-64v-64h-32v64zM528 672c-304 0-432-240-432-240s128-240 432-240c304 0 432 240 432 240s-128 240-432 240v0z" />
<glyph unicode="&#xe99e;" glyph-name="basketball1" d="M130.823 384.31c-1.864 15.663-2.823 31.604-2.823 47.768 0 89.682 29.514 172.471 79.359 239.184 97.296-5.078 188.373-33.648 267.665-80.144-59.714-122.576-185.505-207.039-331.024-207.039-3.807 0-12.579 0.21-13.177 0.232v0zM135.985 352.157c37.031-182.618 198.47-320.079 392.015-320.079 10.614 0 21.132 0.413 31.537 1.225v0c-10.117 35.177-15.537 72.343-15.537 110.775 0 108.873 43.496 207.586 114.060 279.711-42.233 59.126-95.072 110.155-155.739 150.309-65.492-131.599-201.347-222.020-358.321-222.020-2.678 0-5.349 0.026-8.015 0.079v0 0zM503.443 831.337c-107.221-6.494-203.043-55.225-271.044-129.773v0c92.431-8.281 179.057-36.716 255.451-80.879 15.603 40.807 24.15 85.102 24.15 131.393 0 27.21-2.953 53.731-8.557 79.259v0 0zM536.015 832c178.963-3.517 329.114-124.568 376.448-289.146-88.051-6.867-168.098-42.246-230.918-96.911-45.107 62.22-101.42 115.787-165.976 157.739 18.342 45.886 28.431 95.963 28.431 148.397 0 27.369-2.749 54.097-7.985 79.921v0zM767.184 111.438c-50.565-37.78-110.366-63.88-175.404-74.302v0c-10.262 33.843-15.78 69.748-15.78 106.943 0 97.78 38.136 186.654 100.345 252.558 52.801-83.282 85.382-180.65 90.839-285.199v0 0zM797.486 136.478c80.195 73.152 130.514 178.5 130.514 295.6 0 27.129-2.701 53.627-7.848 79.24-84.34-5.395-160.952-39.2-220.368-91.948 53.763-82.827 88.413-179.207 97.702-282.892v0 0z" />
<glyph unicode="&#xe99f;" glyph-name="baseball-set" d="M889.017 183.503c-7.072 67.384-60.616 120.928-128 128v0c0.524-4.997 0.793-10.071 0.793-15.207 0-79.529-64.471-144-144-144-5.136 0-10.209 0.269-15.207 0.793 7.072-67.384 60.616-120.928 128-128-0.524 4.997-0.793 10.071-0.793 15.207 0 79.529 64.471 144 144 144 5.136 0 10.209-0.269 15.207-0.793v0zM888.818 151.299c-7.754-65.944-60.066-118.257-126.011-126.011-0.657 4.909-0.997 9.919-0.997 15.007 0 61.856 50.144 112 112 112 5.089 0 10.098-0.339 15.007-0.997v0zM728.814 311.304c-65.944-7.754-118.257-60.066-126.011-126.011 4.909-0.657 9.919-0.997 15.007-0.997 61.856 0 112 50.144 112 112 0 5.089-0.339 10.098-0.997 15.007v0zM419.748 451.849l-236.467-267.996 73.123-73.123 267.996 236.467-104.652 104.652zM440.961 475.891l312.382 354.033c38.524 43.661 102.629 45.543 143.55 4.622l10.203-10.203c40.891-40.891 38.852-105.191-4.622-143.55l-354.033-312.382-107.48 107.48zM234.493 87.386c5.917-16.866 2.166-36.414-11.321-49.901-18.876-18.876-49.139-18.743-67.886 0.004l-45.247 45.247c-18.687 18.687-18.749 49.141-0.004 67.886 13.563 13.563 33.004 17.312 49.829 11.394l74.629-74.629z" />
<glyph unicode="&#xe9a0;" glyph-name="trophy" d="M672 160v96h-128v128c106.054 0.092 192 85.871 192 191.778v0.222c112 48 128 288 128 288h-672c0 0 16-240 128-288v-0.222c0-105.86 86.103-191.686 192-191.778v-128h-128v-96h-96v-128h480v128h-96zM320 832v-220.8c-75.066 53.739-92.8 220.8-92.8 220.8h92.8zM735.438 832h92.812c0 0-17.746-166.431-92.812-220.17v220.17z" />
<glyph unicode="&#xe9a1;" glyph-name="weights" d="M736 416h-416v-111.794c0-26.717-21.49-48.206-48-48.206-26.694 0-48 21.583-48 48.206v18.524c-5.004-1.769-10.39-2.73-16-2.73-26.694 0-48 21.514-48 48.054v47.946h-64v32h64v47.946c0 26.576 21.49 48.054 48 48.054 5.622 0 11.005-0.954 16-2.709v0 18.503c0 26.717 21.49 48.206 48 48.206 26.694 0 48-21.583 48-48.206v-111.794h416v111.794c0 26.717 21.49 48.206 48 48.206 26.694 0 48-21.583 48-48.206v-18.524c5.004 1.769 10.39 2.73 16 2.73 26.694 0 48-21.514 48-48.054v-47.946h64v-32h-64v-47.946c0-26.576-21.49-48.054-48-48.054-5.622 0-11.005 0.954-16 2.709v-18.503c0-26.717-21.49-48.206-48-48.206-26.694 0-48 21.583-48 48.206v111.794z" />
<glyph unicode="&#xe9a2;" glyph-name="boxing-glove" d="M415.471 542.456v0c1.293-0.46 2.677-0.947 4.147-1.459 11.754-4.093 24.609-8.191 38.123-12.012 23.103-6.533 45.659-11.558 66.666-14.481 13.233-1.842 25.571-2.803 36.831-2.803 29.268 0 59.639 6.001 89.198 16.031 10.395 3.527 19.927 7.303 28.367 11.066 4.983 2.222 8.432 3.912 10.121 4.805l14.963-28.286c-2.3-1.217-6.389-3.22-12.052-5.745-9.305-4.149-19.747-8.285-31.117-12.143-32.624-11.070-66.319-17.728-99.48-17.728-12.839 0-26.627 1.075-41.242 3.109-22.607 3.146-46.549 8.48-70.963 15.384-14.161 4.005-27.614 8.293-39.939 12.585-1.669 0.581-3.237 1.134-4.7 1.656-30.919 0.463-116.394-3.746-116.394-64.432 0-100.164 96-94.887 124.8-192h355.2v320.167c0 88.273-71.657 159.833-160.035 159.833h-31.93c-88.385 0-160.23-71.491-160.472-159.811l-0.092-33.734zM384 224c0 98.445-127.705 96-128 224-0.221 96 128 96 128 96v32.094c0 105.943 86.037 191.906 192.17 191.906h31.66c105.974 0 192.17-85.869 192.17-191.794v-416.206c0-35.593-28.693-64-64.088-64h-287.823c-35.495 0-64.088 28.654-64.088 64v64zM416 224v-64.033c0-17.655 14.235-31.967 31.858-31.967h288.283c17.595 0 31.858 14.165 31.858 31.967v64.033h-352zM448 192v-32h128v32h-128z" />
<glyph unicode="&#xe9a3;" glyph-name="boxing-glove1" d="M256 448c0.259-112.354 98.684-124.204 122.742-192h421.258v320.206c0 105.925-86.195 191.794-192.17 191.794h-31.66c-106.132 0-192.17-85.964-192.17-191.906v-18.688c15.46-7.697 27.16-13.393 28.334-13.82 49.433-17.964 104.591-31.887 148.905-31.887 29.268 0 59.639 6.001 89.198 16.031 10.395 3.527 19.927 7.303 28.367 11.066 4.983 2.222 8.432 3.912 10.121 4.805l14.963-28.286c-2.3-1.217-6.389-3.22-12.052-5.745-9.305-4.149-19.747-8.285-31.117-12.143-32.624-11.070-66.319-17.728-99.48-17.728-49.064 0-107.115 14.654-159.834 33.812-3.025 1.099-13.361 6.133-32.161 15.495-7.276 3.625-14.391 7.187-21.481 10.75-38.037-7.619-91.905-29.503-91.762-91.756v0zM384 224h416v-64c0-35.593-28.693-64-64.088-64h-287.823c-35.495 0-64.088 28.654-64.088 64v64zM448 192v-32h128v32h-128z" />
<glyph unicode="&#xe9a4;" glyph-name="whistle" d="M262.817 402.889v0 0c-10.767 8.225-24.221 13.111-38.817 13.111-35.346 0-64-28.654-64-64s28.654-64 64-64c14.595 0 28.050 4.886 38.817 13.111 22.302-81.341 96.763-141.111 185.183-141.111 106.039 0 192 85.961 192 192 0 13.801-1.456 27.262-4.223 40.238l260.223 55.762v96h-320v-64h-96v64h-32c-88.421 0-162.881-59.77-185.183-141.111zM608 512h256v-38.4l-269.152-57.971c8.461-19.501 13.152-41.017 13.152-63.629 0-88.366-71.634-160-160-160s-160 71.634-160 160c0 77.326 54.854 141.84 127.772 156.753 10.41 2.129 21.188 3.247 32.228 3.247v-64h160v64zM224 384v0c17.796 0 32-14.327 32-32 0-17.796-14.327-32-32-32-17.796 0-32 14.327-32 32 0 17.796 14.327 32 32 32zM512 736v-128h32v128h-32zM675.83 703.328l-67.83-108.55 27.138-16.957 67.83 108.55-27.138 16.957zM379.138 703.328l67.83-108.55-27.138-16.957-67.83 108.55 27.138 16.957z" />
<glyph unicode="&#xe9a5;" glyph-name="whistle1" d="M262.817 402.889c22.302 81.341 96.763 141.111 185.183 141.111h32v-64h96v64h320v-96l-260.223-55.762c2.767-12.976 4.223-26.437 4.223-40.238 0-106.039-85.961-192-192-192-88.421 0-162.881 59.77-185.183 141.111-10.767-8.225-24.221-13.111-38.817-13.111-35.346 0-64 28.654-64 64s28.654 64 64 64c14.595 0 28.050-4.886 38.817-13.111v0 0zM224 384c-17.673 0-32-14.204-32-32 0-17.673 14.204-32 32-32 17.673 0 32 14.204 32 32 0 17.673-14.204 32-32 32v0zM512 736v-128h32v128h-32zM675.83 703.328l-67.83-108.55 27.138-16.957 67.83 108.55-27.138 16.957zM379.138 703.328l67.83-108.55-27.138-16.957-67.83 108.55 27.138 16.957z" />
<glyph unicode="&#xe9a6;" glyph-name="volleyball-water" d="M175.663 209.012l15.333 7.423c-39.875 62.21-62.997 136.187-62.997 215.565 0 220.914 179.086 400 400 400s400-179.086 400-400c0-93.013-31.747-178.61-84.996-246.549-2.672-1.15 4.107 1.733 10.123 4.54 18.325 8.55 36.299 18.743 53.899 30.427 19.937 13.236 37.673 27.41 52.974 41.57v-42.314c-10.914-8.854-22.684-17.557-35.275-25.916-115.906-76.948-248.908-94.638-389.235-15.704-128.701 72.394-258.077 56.001-378.147-15.654-22.804-13.609-43.3-28.192-61.139-42.753-0.068-0.055-0.203 40.343-0.203 40.343 13.836 10.221 28.847 20.282 44.944 29.888 10.573 6.31 21.227 12.223 31.956 17.718 0.958 0.491 2.764 1.415 2.764 1.415v0zM346.277 256.583v0c-5.272-0.261 4.289 0.328 14.371 0.427 62.896 0.618 126.816-15.226 190.53-51.065 0.704-0.396 2.006-1.086 3.705-1.97 67.232 54.652 122.173 126.042 157.715 210.857-54.977 20.518-114.292 32.136-176.193 33.102-48.484-81.061-114.379-145.52-190.128-191.351zM782.037 165.749c39.226 37.437 70.191 83.455 89.883 135.041 3.342 8.755 6.676 18.98 5.403 15.145-39.859 35.193-85.073 64.461-134.263 86.426-35.671-85.245-89.813-157.716-156.018-214.423-0.308 0.136-0.617 0.273-0.925 0.41 62.2-27.671 122.315-34.916 179.692-25.668 8.679 1.399 19.443 3.766 16.229 3.068v0zM525.624 32.007c0.791-0.005 1.583-0.007 2.376-0.007 0.796 0 1.592 0.002 2.387 0.007h-4.763zM249.184 672.187v0 0c2.237 2.594-9.591-11.249-17.059-21.329-45.321-61.169-72.125-136.883-72.125-218.859 0-59.182 13.97-115.1 38.793-164.638 7.553-15.074 21.495-37.305 19.516-34.229 52.826 17.058 103.055 42.424 148.545 75.521-82.326 107.864-120.9 236.472-117.67 363.534zM284.223 707.68c-12.112-131.273 23.281-266.886 108.627-378.836 44.962 37.242 84.431 82.602 116.052 135.448-57.245 102.783-78.677 216.081-68.21 325.289 2.427 0.59-10.191-2.522-18.75-5.094-42.471-12.761-81.71-32.988-116.194-59.156-11.83-8.977-25.685-21.331-21.526-17.65v0 0zM857.965 595.117v0 0c1.013-2.045-8.812 17.167-15.589 28.274-64.614 105.907-181.238 176.609-314.376 176.609-10.128 0-20.161-0.409-30.082-1.212-10.94-0.885-27.059-3.188-24.377-2.79-4.301-37.741-4.558-76.059-0.586-114.271 139.273 18.089 274.379-15.522 385.010-86.61zM880.167 539.116c-110.741 86.093-254.243 129.228-402.784 109.995 9.717-57.884 29.315-115.076 59.436-169.179 133.094-2.055 254.923-50.541 350.002-129.975-0.598-2.625 3.21 14.65 4.965 26.173 2.775 18.218 4.214 36.876 4.214 55.87 0 30.448-3.698 60.033-10.669 88.329-3.248 13.185-7.202 25.498-5.164 18.787v0 0zM191.334 120.591c114.937 53.286 237.769 58.021 359.844-10.646 111.406-62.666 216.668-59.066 312.156-11.004v-35.491c-100.57-45.867-211.698-46.727-327.844 18.605-116.641 65.61-233.836 58.293-344.156 3.007v35.53z" />
<glyph unicode="&#xe9a7;" glyph-name="volleyball-water1" d="M635.378 234.506c44.362 48.056 81.137 104.418 107.682 167.855 59.989-26.786 114.064-64.435 159.724-110.446 0.912 2.439-2.539-6.804-5.434-13.745-80.474-50.522-168.58-69.773-261.972-43.664v0 0zM600.999 246.1c46.333 47.511 84.574 104.241 111.599 168.733-54.977 20.518-114.292 32.136-176.193 33.102-30.399-50.823-67.641-95.121-109.866-132.392 41.406-7.341 83.066-22.212 124.639-45.597 16.75-9.422 33.361-17.346 49.821-23.846v0 0zM357.708 320.969c-86.412 119.631-120.593 263.059-105.094 401.139 1.123 1.066-13.75-13.446-21.745-22.311-63.942-70.901-102.868-164.803-102.868-267.797 0-58.934 12.745-114.89 35.629-165.264 62.568 33.579 127.742 53.041 194.078 54.234v0 0zM921.647 503.392c-114.984 109.544-276.406 167.453-444.264 145.719 9.717-57.884 29.315-115.076 59.436-169.179 146.035-2.255 278.508-60.409 376.964-154.009-0.548-1.996 2.817 10.478 4.68 18.855 6.244 28.077 9.537 57.265 9.537 87.222 0 15.363-0.866 30.524-2.552 45.436-1.847 16.337-5.141 33.396-3.8 25.956v0zM907.173 559.731c-118.402 94.921-273.537 142.866-434.217 121.997-5.133 49.389-3.204 98.954 5.394 147.221-1.641-0.203 5.747 0.706 11.124 1.22 12.679 1.212 25.53 1.831 38.527 1.831 167.707 0 311.309-103.209 370.752-249.577 4.615-11.363 9.774-26.715 8.42-22.693v0zM290.482 753.879c-26.022-145.169 6.96-299.888 102.367-425.035 44.962 37.242 84.431 82.602 116.052 135.448-63.175 113.43-82.733 239.666-63.934 359.079 1.010 0.213-5.644-1.209-9.942-2.232-45.316-10.787-87.643-29.285-125.517-54.029-9.076-5.93-21.519-15.074-19.025-13.23v0zM96 159.991c13.836 10.221 28.847 20.282 44.944 29.888 129.022 76.997 270.126 94.877 410.234 16.066 128.678-72.381 249.158-56.356 355.848 14.473 19.937 13.236 37.673 27.41 52.974 41.57v-42.314c-10.914-8.854-22.684-17.557-35.275-25.916-115.906-76.948-248.908-94.638-389.235-15.704-128.701 72.394-258.077 56.001-378.147-15.654-22.804-13.609-43.3-28.192-61.139-42.753-0.068-0.055-0.136-0.111-0.203-0.166v40.509zM191.334 120.591c114.937 53.286 237.769 58.021 359.844-10.646 111.406-62.666 216.668-59.066 312.156-11.004v-35.491c-100.57-45.867-211.698-46.727-327.844 18.605-116.641 65.61-233.836 58.293-344.156 3.007v35.53z" />
<glyph unicode="&#xe9a8;" glyph-name="checkered-flag" d="M768.562 402.667c0 0-57.8-29.279-147.495-14.722-6.211 1.008-15.166 3.096-13.068 2.667v127.851c-25.751 4.628-53.432 12.638-82.119 25.556-27.78 12.51-53.882 20.608-77.881 25.551v-127.303c3.321-0.592-4.299 0.157-11.638 1.198-83.25 11.807-148.362-9.276-148.362-9.276v128.637c0.004 0.001 71.281 23.257 160 7.44v127.303c-97.262 20.031-159.996-11.762-160-11.764v127.188c0 0 62.729 31.549 160 11.726v-126.453c25.643-4.571 52.743-12.407 80-25.012 28.518-13.187 55.348-21.604 80-26.643v127.362c92.73-16.643 160.562 10.22 160.562 10.22v-129.264c-0.36 1.217-0.562 1.888-0.562 1.888-0.004-0.002-67.573-26.964-160-10.354v-127.851c22.708-4.642 43.568-6.418 62.197-6.418 60.769 0 97.8 18.902 97.803 18.904l0.562-128.431zM256 32.194h32v366.565c44.073 15.856 130.577 33.089 240-14.565 160.725-69.996 272 0 272 0v448c0 0-111.24-71.563-272 0s-272 0-272 0v-800z" />
<glyph unicode="&#xe9a9;" glyph-name="checkered-flag1" d="M608 773.975v-127.362c96.781-19.784 159.996 12.483 160 12.485l0.562 0.46v-130.74h-0.562c-0.004-0.002-67.573-26.964-160-10.354v-128.125c-24.578 5.015-51.312 13.359-79.719 26.394-27.356 12.553-54.553 20.345-80.281 24.882v127.956c-97.262 20.031-159.996-11.762-160-11.764v133.020c0.004 0.001 71.281 23.257 160 7.44v126.453c24.079-4.907 50.275-12.962 78.16-25.423 28.581-12.772 56.165-20.715 81.84-25.323zM256 576.194v-544h32v366.565c44.073 15.856 130.577 33.089 240-14.565 160.725-69.996 272 0 272 0v448c0 0-111.24-71.563-272 0s-272 0-272 0v-256zM448 697.571v0 0c24-4.943 50.101-13.041 77.881-25.551 28.687-12.918 56.367-20.928 82.119-25.556v-127.851c-24.652 5.039-51.482 13.456-80 26.643-27.257 12.605-54.357 20.44-80 25.012v127.303z" />
<glyph unicode="&#xe9aa;" glyph-name="target-arrow" d="M288 199.326l-32-32v-103.326h-32v71.326l-41.373-41.373-22.627 22.627 43.419 43.419h-75.419v32h107.419l32 32h-75.419v32h107.419l170.29 170.29-21.71 21.71 96 32-32-96-19.663 19.663-172.337-172.337v-103.326h-32v71.326zM248.926 288c-36.003 55.218-56.926 121.166-56.926 192 0 194.404 157.596 352 352 352s352-157.596 352-352c0-194.404-157.596-352-352-352-70.834 0-136.782 20.923-192 56.926v34.298l2.727 2.727c53.007-38.945 118.454-61.951 189.273-61.951 176.731 0 320 143.269 320 320s-143.269 320-320 320c-176.731 0-320-143.269-320-320 0-71.278 23.304-137.113 62.71-190.302l-1.698-1.698h-36.085zM448.106 475.459c-0.070 1.505-0.106 3.019-0.106 4.541 0 53.019 42.981 96 96 96s96-42.981 96-96c0-53.019-42.981-96-96-96-1.522 0-3.036 0.035-4.541 0.106l9.031 31.608 0.476 0.476c33.026 2.534 59.034 30.135 59.034 63.81 0 35.346-28.654 64-64 64-33.793 0-61.469-26.191-63.836-59.382l-32.059-9.16zM355.676 358.665c-22.574 34.965-35.676 76.62-35.676 121.335 0 123.712 100.288 224 224 224s224-100.288 224-224c0-123.712-100.288-224-224-224-44.252 0-85.507 12.832-120.246 34.978l23.275 23.275c28.459-16.686 61.598-26.252 96.972-26.252 106.039 0 192 85.961 192 192s-85.961 192-192 192c-106.039 0-192-85.961-192-192 0-35.84 9.82-69.386 26.916-98.095l-23.24-23.24z" />
</font>
</defs>
</svg>
